<?xml version="1.0" standalone="no"?>
<!DOCTYPE svg PUBLIC "-//W3C//DTD SVG 1.1//EN" "http://www.w3.org/Graphics/SVG/1.1/DTD/svg11.dtd" >
<svg xmlns="http://www.w3.org/2000/svg">
<metadata>Generated by IcoMoon</metadata>
<defs>
<font id="icons" horiz-adv-x="1024">
<font-face units-per-em="1024" ascent="960" descent="-64" />
<missing-glyph horiz-adv-x="1024" />
<glyph unicode="&#x20;" horiz-adv-x="512" d="" />
<glyph unicode="&#x32;" glyph-name="mobile2" d="M710.502 972.8h-397.005c-57.498 0-104.499-47.002-104.499-104.499v-815.002c0-57.446 47.002-104.499 104.499-104.499h397.005c57.498 0 104.499 47.053 104.499 104.499v815.002c0 57.498-47.002 104.499-104.499 104.499zM512-9.421c-40.346 0-73.114 23.398-73.114 52.275s32.768 52.275 73.114 52.275c40.397 0 73.114-23.398 73.114-52.275s-32.717-52.275-73.114-52.275zM731.392 147.354h-438.835v689.613h438.835v-689.613z" />
<glyph unicode="&#x35;" glyph-name="mail3" d="M81.613 702.157c24.986-13.466 371.149-199.373 384.051-206.285 12.851-6.912 29.542-10.24 46.336-10.24 16.845 0 33.536 3.328 46.387 10.291 12.902 6.912 359.014 192.819 384 206.285 25.037 13.414 48.691 55.552 2.765 55.552h-866.253c-45.926 0-22.323-42.138 2.714-55.603zM952.986 599.757c-28.416-14.848-377.19-197.171-394.598-206.285s-29.542-10.291-46.387-10.291c-16.794 0-28.928 1.178-46.336 10.291s-366.234 191.488-394.598 206.285c-20.019 10.445-19.866-1.792-19.866-11.213s0-375.552 0-375.552c0-21.504 28.621-49.152 50.79-49.152h820.070c22.221 0 50.739 27.648 50.739 49.101 0 0 0 366.131 0 375.552 0 9.472 0.205 21.709-19.814 11.264z" />
<glyph unicode="&#x3f;" glyph-name="users" d="M1024 10.24c0 0-1.997 193.894-13.875 213.965-17.664 29.952-58.675 50.483-134.861 82.33-75.93 31.744-100.25 58.573-100.25 115.866 0 34.458 23.194 23.194 33.382 86.221 4.198 26.163 24.678 0.461 28.621 60.109 0 23.808-11.162 29.747-11.162 29.747s5.632 35.226 7.885 62.31c2.765 33.792-17.050 120.986-122.47 120.986s-125.133-87.245-122.419-120.986c2.202-27.085 7.834-62.31 7.834-62.31s-11.162-5.939-11.162-29.747c3.942-59.699 24.422-33.997 28.672-60.109 10.138-63.027 33.331-51.763 33.331-86.221 0-38.963-11.264-63.846-42.342-85.709 165.888-83.046 188.16-99.994 188.16-174.234v-152.218h230.656zM523.469 277.76c-101.325 42.291-133.632 78.029-133.632 154.47 0 45.875 30.925 30.925 44.493 114.995 5.581 34.867 32.973 0.563 38.144 80.128 0 31.744-14.899 39.629-14.899 39.629s7.578 46.95 10.547 83.098c3.686 44.954-22.733 161.28-163.277 161.28s-166.912-116.275-163.226-161.28c2.97-36.147 10.496-83.098 10.496-83.098s-14.848-7.885-14.848-39.629c5.274-79.616 32.563-45.312 38.195-80.128 13.568-84.070 44.493-69.069 44.493-114.995 0-76.442-32.41-112.179-133.632-154.47-30.874-12.902-86.323-32.922-86.323-80.947v-186.573h711.373c0 0 0 110.336 0 139.827 0 43.878-86.374 85.197-187.904 127.693z" />
<glyph unicode="&#x43;" glyph-name="location2" d="M512 870.4c-141.414 0-256-114.637-256-256 0-244.429 256-563.2 256-563.2s256 318.771 256 563.2c0 141.363-114.586 256-256 256zM512 473.088c-76.339 0-138.24 61.901-138.24 138.24s61.901 138.24 138.24 138.24 138.24-61.901 138.24-138.24-61.901-138.24-138.24-138.24z" />
<glyph unicode="&#x44;" glyph-name="map2" d="M1007.77 715.571l-239.309 149.862c-10.598 6.656-23.859 6.656-34.458 0l-222.003-139.059-222.003 139.008c-10.598 6.656-23.859 6.656-34.458 0l-239.309-149.811c-10.035-6.298-16.23-17.715-16.23-29.952v-599.398c0-12.595 6.451-24.269 16.998-30.464s23.398-6.042 33.741 0.461l222.003 139.059 222.003-139.059c10.598-6.656 23.859-6.656 34.509 0l222.003 139.059 222.003-139.059c5.274-3.328 11.264-5.018 17.254-5.018 5.683 0 11.366 1.536 16.486 4.557 10.496 6.195 16.998 17.869 16.998 30.464v599.398c0 12.237-6.195 23.654-16.23 29.952zM239.258 255.846l-172.288-107.878v517.837l172.288 107.878v-517.837zM478.515 147.968l-172.288 107.878v517.837l172.288-107.878v-517.837zM717.773 255.846l-172.237-107.878v517.837l172.237 107.878v-517.837zM956.979 147.968l-172.237 107.878v517.837l172.237-107.878v-517.837z" />
<glyph unicode="&#x53;" glyph-name="house" d="M961.024 445.44l-410.829 411.187c-20.992 21.811-55.347 21.811-76.339 0l-410.88-411.187c-21.043-21.76-13.21-39.629 17.408-39.629h85.658v-315.802c0-22.784 0.973-41.421 42.189-41.421h199.424v316.826h208.64v-316.826h209.357c31.437 0 32.307 18.586 32.307 41.421v315.802h85.606c30.566 0 38.451 17.818 17.459 39.629z" />
<glyph unicode="&#x55;" glyph-name="search" d="M898.304 180.838l-193.485 193.485c29.184 47.974 45.978 104.192 45.978 164.454 0 174.899-151.603 326.502-326.554 326.502-174.899 0-316.723-141.824-316.723-316.723 0-174.95 151.552-326.554 326.502-326.554 58.163 0 112.64 15.77 159.488 43.162l194.509-194.56c19.098-19.046 49.92-19.046 68.915 0l48.282 48.23c18.995 19.046 12.083 43.008-6.912 62.003zM205.005 548.557c0 121.088 98.15 219.29 219.238 219.29 121.139 0 229.069-107.93 229.069-229.069s-98.15-219.29-219.29-219.29-229.018 107.93-229.018 229.069z" />
<glyph unicode="&#x75;" glyph-name="briefcase" d="M465.92 409.498h92.16v-102.4h465.92c0 0-7.578 228.25-10.24 299.725-2.509 67.891-26.778 109.875-102.4 109.875h-164.25c-25.446 47.974-52.838 99.584-61.235 115.456-16.947 31.949-22.733 38.144-60.416 38.144h-226.918c-37.683 0-43.469-6.195-60.416-38.144-8.397-15.872-35.789-67.482-61.235-115.456h-164.25c-75.622 0-99.584-41.984-102.4-109.875s-10.24-299.725-10.24-299.725h465.92v102.4zM391.68 772.25c11.725 22.118 15.77 26.419 41.779 26.419h157.030c26.112 0 30.106-4.301 41.779-26.419 4.403-8.294 16.282-30.72 29.491-55.501h-299.52c13.158 24.73 25.037 47.155 29.44 55.501zM558.080 153.498h-92.16v102.4h-440.32c0 0 6.4-92.058 10.24-170.086 1.587-32.41 11.11-85.914 92.109-85.914h768.102c80.998 0 90.317 53.555 92.109 85.914 4.454 80.23 10.24 170.086 10.24 170.086h-440.32v-102.4z" />
<glyph unicode="&#x7a;" glyph-name="network" d="M269.978 618.803c10.291 0 20.224-1.536 29.542-4.454 35.328 39.578 74.496 75.622 116.89 107.571-1.741 7.424-2.816 15.206-2.816 23.245 0 11.162 1.843 21.811 5.222 31.744-47.462 34.099-99.174 62.669-154.061 84.787-51.558-31.846-96.461-73.37-132.25-122.010 26.573-47.053 58.214-90.931 94.106-130.918 13.158 6.4 27.853 10.035 43.366 10.035zM169.779 518.605c0 14.029 2.918 27.443 8.141 39.578-32.102 35.328-61.286 73.421-86.835 114.074-32-63.59-50.125-135.424-50.125-211.456 0-88.115 24.269-170.496 66.355-240.998 15.002 84.736 43.571 164.864 82.944 238.285-12.8 16.794-20.48 37.734-20.48 60.518zM513.792 845.414c26.522 0 50.483-10.342 68.403-27.085 52.275 22.477 107.366 39.731 164.659 50.739-69.171 39.834-149.299 62.771-234.854 62.771-58.317 0-114.125-10.701-165.632-30.106 40.909-20.224 79.923-43.725 116.531-70.349 14.95 8.858 32.307 14.029 50.893 14.029zM663.706 373.35c6.246 13.005 15.104 24.474 26.061 33.587-29.594 91.034-76.442 174.285-136.806 245.965-12.032-5.12-25.242-7.936-39.168-7.936-21.709 0-41.779 7.014-58.214 18.739-36.352-27.597-69.939-58.573-100.506-92.365 9.523-15.309 15.104-33.331 15.104-52.736 0-10.496-1.587-20.531-4.557-30.054 87.91-58.726 189.082-99.021 298.086-115.2zM793.702 238.029c1.331-18.944 2.099-38.093 2.099-57.395 0-34.048-2.202-67.482-6.298-100.403 79.923 58.368 140.698 141.158 171.418 237.517-36.352-8.806-73.626-15.104-111.667-18.739-8.96-27.392-29.338-49.613-55.552-60.979zM640.205 306.022c-116.275 19.251-224.102 63.59-317.901 127.181-15.258-9.37-33.075-14.848-52.275-14.848-7.066 0-13.875 0.768-20.531 2.15-44.902-85.197-73.626-180.224-81.92-280.883 44.851-48.077 99.584-86.784 161.075-112.794 76.288 117.299 182.989 214.426 311.552 279.194zM828.211 809.882c-75.469-7.27-147.558-26.214-214.682-54.682 0.41-3.277 0.563-6.656 0.563-10.035 0-15.821-3.738-30.72-10.291-43.981 67.072-78.746 119.142-170.496 152.064-270.899 40.704-0.768 75.571-25.702 90.573-61.184 45.363 4.608 89.498 13.312 132.045 25.805 2.918 21.504 4.557 43.469 4.557 65.894 0 138.445-59.75 262.963-154.829 349.082zM690.637 252.467c-120.064-56.218-220.365-142.797-293.069-248.627 36.608-9.165 74.957-14.080 114.432-14.080 71.117 0 138.394 15.821 198.81 43.981 9.677 47.462 14.848 96.563 14.848 146.893 0 18.125-0.87 36.147-2.202 54.016-12.083 3.84-23.194 9.933-32.819 17.818z" />
<glyph unicode="&#xa2;" glyph-name="bars" d="M870.4 921.6h-112.64c-28.262 0-40.96-22.938-40.96-51.2v-870.4h204.8v870.4c0 28.262-22.886 51.2-51.2 51.2zM563.2 614.4h-112.64c-28.262 0-40.96-22.938-40.96-51.2v-563.2h204.8v563.2c0 28.262-22.886 51.2-51.2 51.2zM256 307.2h-112.64c-28.262 0-40.96-22.886-40.96-51.2v-256h204.8v256c0 28.314-22.938 51.2-51.2 51.2z" />
<glyph unicode="&#xa3;" glyph-name="graph" d="M997.786 850.586l-237.005-386.099c-8.806-14.285-26.010-16.64-38.298-5.171l-114.586 107.315c-12.288 11.469-29.901 9.421-39.219-4.608l-160.922-242.688c-9.267-13.978-27.034-16.179-39.475-4.915l-74.906 68.403c-12.442 11.315-31.181 9.83-41.677-3.226l-235.981-294.298c-10.547-13.158-5.376-23.859 11.366-23.859h986.675v784.64c0.051 16.845-7.168 18.893-15.974 4.506z" />
<glyph unicode="&#xeb;" glyph-name="flow-tree" d="M918.989 215.245v117.555c0 71.014-47.002 176.64-176.589 176.64h-102.4c-72.294 0-79.002 35.43-79.36 53.76v143.155c43.674 18.893 74.24 62.31 74.24 112.845 0 67.84-54.989 122.88-122.88 122.88s-122.88-55.040-122.88-122.88c0-50.534 30.566-93.952 74.24-112.845v-143.155c0-13.261-3.84-53.76-79.36-53.76h-102.4c-129.587 0-176.64-105.626-176.64-176.64v-117.555c-43.674-18.842-74.24-62.31-74.24-112.845 0-67.84 54.989-122.88 122.88-122.88 67.84 0 122.88 55.040 122.88 122.88 0 50.534-30.566 94.003-74.24 112.845v117.555c0 13.261 3.84 79.36 79.36 79.36h102.4c31.078 0 57.293 4.71 79.36 12.698v-209.613c-43.674-18.842-74.24-62.31-74.24-112.845 0-67.84 54.989-122.88 122.88-122.88s122.88 55.040 122.88 122.88c0 50.534-30.618 94.003-74.291 112.845v209.613c22.067-7.987 48.282-12.698 79.36-12.698h102.4c72.294 0 79.002-61.030 79.411-79.36v-117.555c-43.674-18.842-74.24-62.31-74.24-112.845 0-67.84 54.989-122.88 122.88-122.88s122.88 55.040 122.88 122.88c0 50.534-30.566 94.003-74.291 112.845zM224.512 102.4c0-39.168-31.744-70.912-70.912-70.912s-70.912 31.744-70.912 70.912 31.744 70.912 70.912 70.912 70.912-31.744 70.912-70.912zM441.088 819.2c0 39.168 31.795 70.912 70.912 70.912s70.861-31.744 70.861-70.912-31.744-70.912-70.861-70.912c-39.117 0-70.912 31.744-70.912 70.912zM582.912 102.4c0-39.168-31.795-70.912-70.861-70.912-39.168 0-70.912 31.744-70.912 70.912s31.744 70.912 70.861 70.912c39.117 0 70.912-31.744 70.912-70.912zM870.4 31.488c-39.117 0-70.912 31.744-70.912 70.912s31.795 70.912 70.912 70.912 70.912-31.744 70.912-70.912-31.795-70.912-70.912-70.912z" />
<glyph unicode="&#xfe;" glyph-name="arrow-left5" d="M585.574 741.581c-21.402-20.89-230.502-240.435-230.502-240.435-11.418-11.162-17.101-25.754-17.101-40.346s5.683-29.184 17.101-40.346c0 0 209.101-219.546 230.502-240.384 21.402-20.89 59.904-22.323 82.739 0 22.784 22.272 24.576 53.35-0.051 80.64l-191.846 200.090 191.846 200.090c24.627 27.341 22.835 58.419 0.051 80.691-22.886 22.272-61.389 20.89-82.739 0z" />
<glyph unicode="&#xff;" glyph-name="arrow-down5" d="M792.73 534.374c-20.838-21.402-240.384-230.554-240.384-230.554-11.162-11.418-25.754-17.101-40.346-17.101-14.643 0-29.235 5.683-40.346 17.101 0 0-219.546 209.152-240.435 230.554-20.838 21.402-22.272 59.853 0 82.739 22.323 22.835 53.402 24.627 80.691 0l200.090-191.898 200.038 191.846c27.341 24.627 58.47 22.835 80.691 0 22.323-22.835 20.941-61.338 0-82.688z" />
<glyph unicode="&#x100;" glyph-name="arrow-up4" d="M792.73 387.226c-20.838 21.402-240.384 230.502-240.384 230.502-11.162 11.418-25.754 17.152-40.346 17.152-14.643 0-29.235-5.734-40.346-17.152 0 0-219.546-209.101-240.435-230.502-20.838-21.402-22.272-59.904 0-82.739 22.323-22.784 53.402-24.627 80.691 0l200.090 191.846 200.038-191.846c27.341-24.627 58.47-22.784 80.691 0 22.323 22.886 20.941 61.389 0 82.739z" />
<glyph unicode="&#x101;" glyph-name="arrow-right5" d="M438.426 741.581c21.402-20.89 230.502-240.435 230.502-240.435 11.469-11.162 17.152-25.754 17.152-40.346s-5.683-29.184-17.152-40.346c0 0-209.101-219.546-230.502-240.384-21.402-20.89-59.853-22.323-82.739 0-22.835 22.272-24.627 53.35 0 80.64l191.898 200.090-191.846 200.090c-24.627 27.341-22.835 58.419 0 80.691s61.338 20.89 82.688 0z" />
<glyph unicode="&#x102;" glyph-name="arrow-left6" d="M634.829 285.798c13.722-13.875 13.722-36.301 0-50.125-13.722-13.875-35.891-13.875-49.613 0l-196.096 200.038c-13.722 13.875-13.722 36.301 0 50.125l196.096 200.090c13.722 13.875 35.891 13.875 49.613 0s13.722-36.25 0-50.125l-160.768-175.002 160.768-175.002z" />
<glyph unicode="&#x103;" glyph-name="arrow-down6" d="M687.002 583.629c13.875 13.722 36.301 13.722 50.125 0 13.875-13.722 13.875-35.891 0-49.613l-200.038-196.096c-13.875-13.722-36.301-13.722-50.125 0l-200.090 196.096c-13.824 13.722-13.824 35.891 0 49.613 13.875 13.722 36.25 13.722 50.125 0l175.002-160.768 175.002 160.768z" />
<glyph unicode="&#x104;" glyph-name="arrow-up5" d="M336.947 337.971c-13.875-13.722-36.25-13.722-50.125 0-13.824 13.722-13.875 35.891 0 49.664l200.090 195.994c13.875 13.722 36.301 13.722 50.125 0l200.090-196.045c13.875-13.773 13.875-35.942 0-49.664s-36.25-13.722-50.125 0l-175.053 160.819-175.002-160.768z" />
<glyph unicode="&#x105;" glyph-name="arrow-right6" d="M389.171 285.798c-13.722-13.875-13.722-36.301 0-50.125 13.67-13.875 35.891-13.875 49.613 0l196.096 200.038c13.722 13.875 13.722 36.301 0 50.125l-196.096 200.090c-13.722 13.875-35.891 13.875-49.613 0s-13.722-36.25-0.051-50.074l160.819-175.053-160.768-175.002z" />
<glyph unicode="&#x123;" glyph-name="vimeo" d="M968.192 673.741c-51.507-295.526-339.2-545.792-425.728-602.931-86.579-57.139-165.478 22.886-194.15 83.456-32.768 68.966-131.021 443.238-156.774 474.163-25.702 31.078-102.912-30.925-102.912-30.925l-37.427 49.971c0 0 156.774 190.72 276.070 214.528 126.464 25.242 126.259-197.837 156.672-321.69 29.44-119.859 49.203-188.467 74.854-188.467 25.754 0 74.854 66.867 128.666 169.318 53.914 102.554-2.304 193.075-107.622 128.717 42.086 257.434 439.859 319.334 388.352 23.859z" />
<glyph unicode="&#x124;" glyph-name="vimeo2" d="M512 952.32c-271.462 0-491.52-220.058-491.52-491.52s220.058-491.52 491.52-491.52 491.52 220.058 491.52 491.52-220.058 491.52-491.52 491.52zM737.28 555.469c-26.010-149.35-171.418-275.763-215.091-304.64-43.725-28.826-83.61 11.622-98.099 42.138-16.538 34.867-66.202 223.949-79.206 239.565-13.005 15.718-51.968-15.616-51.968-15.616l-18.893 25.293c0 0 79.206 96.358 139.469 108.339 63.898 12.8 63.795-99.891 79.155-162.509 14.899-60.57 24.883-95.181 37.837-95.181 13.005 0 37.837 33.741 65.024 85.504 27.238 51.866-1.126 97.587-54.374 65.075 21.197 129.997 222.208 161.331 196.147 12.032z" />
<glyph unicode="&#x125;" glyph-name="twitter3" d="M983.040 752.998c-34.714-15.411-71.936-25.754-111.053-30.464 39.936 23.91 70.605 61.798 84.992 106.906-37.325-22.118-78.694-38.246-122.675-46.899-35.277 37.581-85.504 61.030-141.107 61.030-106.752 0-193.28-86.528-193.28-193.229 0-15.155 1.69-29.901 5.018-44.032-160.614 8.038-303.053 84.992-398.336 201.933-16.691-28.518-26.266-61.747-26.266-97.178 0-67.072 34.15-126.208 86.016-160.87-31.693 1.024-61.491 9.677-87.552 24.166 0-0.819 0-1.587 0-2.406 0-93.645 66.662-171.725 155.034-189.542-16.179-4.403-33.28-6.758-50.944-6.758-12.442 0-24.525 1.178-36.352 3.43 24.576-76.8 96-132.659 180.531-134.195-66.15-51.866-149.453-82.739-240.026-82.739-15.616 0-30.976 0.922-46.080 2.714 85.504-54.835 187.085-86.835 296.294-86.835 355.482 0 549.888 294.502 549.888 549.939 0 8.346-0.154 16.691-0.563 24.986 37.786 27.238 70.502 61.286 96.461 100.045z" />
<glyph unicode="&#x126;" glyph-name="twitter4" d="M512 952.32c-271.462 0-491.52-220.058-491.52-491.52s220.058-491.52 491.52-491.52 491.52 220.058 491.52 491.52-220.058 491.52-491.52 491.52zM711.885 549.632c0.205-4.147 0.307-8.346 0.307-12.544 0-127.898-97.382-275.405-275.456-275.405-54.63 0-105.574 15.974-148.378 43.52 7.578-0.922 15.309-1.331 23.091-1.331 45.363 0 87.091 15.462 120.269 41.472-42.342 0.768-78.131 28.774-90.47 67.174 5.888-1.126 11.981-1.741 18.176-1.741 8.858 0 17.408 1.178 25.498 3.379-44.237 8.909-77.67 48.026-77.67 94.925 0 0.41 0 0.819 0.051 1.178 13.056-7.219 28.006-11.571 43.827-12.083-25.907 17.357-43.008 46.95-43.008 80.589 0 17.766 4.762 34.406 13.107 48.691 47.718-58.624 119.091-97.178 199.526-101.171-1.638 7.066-2.509 14.438-2.509 22.067 0 53.453 43.366 96.819 96.819 96.819 27.853 0 52.992-11.725 70.656-30.566 22.067 4.301 42.803 12.339 61.491 23.45-7.27-22.579-22.579-41.574-42.598-53.555 19.61 2.355 38.246 7.526 55.603 15.258-12.954-19.405-29.44-36.454-48.333-50.125z" />
<glyph unicode="&#x127;" glyph-name="facebook3" d="M768 761.395h-146.227c-17.306 0-36.608-22.733-36.608-53.197v-105.574h182.835v-150.528h-182.835v-452.096h-172.646v452.045h-156.518v150.579h156.518v88.576c0 127.027 88.166 230.4 209.203 230.4h146.278v-160.205z" />
<glyph unicode="&#x128;" glyph-name="facebook4" d="M512 952.32c-271.462 0-491.52-220.058-491.52-491.52s220.058-491.52 491.52-491.52 491.52 220.058 491.52 491.52-220.058 491.52-491.52 491.52zM628.378 612.659h-73.882c-8.704 0-18.432-11.52-18.432-26.829v-53.35h92.365v-76.083h-92.365v-228.403h-87.245v228.403h-79.053v76.032h79.053v44.749c0 64.205 44.544 116.378 105.677 116.378h73.882v-80.896z" />
<glyph unicode="&#x12a;" glyph-name="googleplus3" d="M101.888 686.643c0-76.442 25.549-131.686 75.878-164.096 41.216-26.573 89.088-30.566 113.971-30.566 6.042 0 10.854 0.256 14.234 0.461 0 0-7.885-51.354 30.208-102.195l-1.741 0.051c-65.997 0-281.293-13.824-281.293-190.822 0-180.070 197.734-189.184 237.363-189.184 3.123 0 4.915 0.051 4.915 0.051 0.461 0 3.277-0.102 8.090-0.102 25.446 0 91.238 3.174 152.371 32.922 79.258 38.451 119.501 105.421 119.501 198.912 0 90.368-61.235 144.128-105.984 183.45-27.29 23.962-50.893 44.646-50.893 64.768 0 20.48 17.203 35.891 39.014 55.398 35.226 31.539 68.506 76.442 68.506 161.331 0 74.65-9.677 124.723-69.325 156.467 6.246 3.174 28.211 5.478 39.117 7.014 32.307 4.403 79.565 9.421 79.565 35.789v5.069h-235.418c-2.355-0.051-238.080-8.806-238.080-224.717zM481.946 225.178c4.506-71.987-57.088-125.133-149.555-131.84-93.901-6.912-171.264 35.379-175.77 107.366-2.15 34.56 13.005 68.403 42.752 95.386 30.208 27.29 71.578 44.134 116.685 47.514 5.325 0.307 10.598 0.563 15.872 0.563 86.886 0 145.766-51.098 150.016-118.989zM420.454 735.949c23.091-81.254-11.776-166.195-67.328-181.862-6.4-1.792-13.005-2.714-19.661-2.714-50.944 0-101.376 51.507-120.064 122.47-10.445 39.885-9.626 74.701 2.355 108.237 11.776 32.922 32.922 55.245 59.546 62.72 6.4 1.843 13.056 2.714 19.712 2.714 61.44 0 100.966-25.498 125.44-111.565zM817.203 559.002v153.6h-97.28v-153.6h-153.6v-97.28h153.6v-153.6h97.28v153.6h153.6v97.28h-153.6z" />
<glyph unicode="&#x12b;" glyph-name="googleplus4" d="M465.766 599.808c-12.339 43.52-32.307 56.371-63.386 56.371-3.328 0-6.707-0.461-9.933-1.331-13.517-3.84-24.166-15.104-30.106-31.744-6.093-16.896-6.502-34.56-1.178-54.63 9.421-35.84 34.918-61.901 60.672-61.901 3.328 0 6.707 0.461 9.933 1.331 28.006 7.936 45.619 50.842 33.997 91.904zM512 952.32c-271.462 0-491.52-220.058-491.52-491.52s220.058-491.52 491.52-491.52c271.514 0 491.52 220.058 491.52 491.52s-220.006 491.52-491.52 491.52zM483.686 249.754c-30.925-15.002-64.154-16.589-77.005-16.589-2.458 0-3.84 0.051-4.045 0.051 0 0-0.973 0-2.509 0-20.070 0-119.962 4.608-119.962 95.59 0 89.395 108.749 96.358 142.080 96.358h0.922c-19.2 25.702-15.206 51.61-15.206 51.61-1.69-0.102-4.198-0.205-7.219-0.205-12.595 0-36.813 1.997-57.6 15.462-25.446 16.333-38.349 44.237-38.349 82.893 0 109.107 119.091 113.51 120.32 113.562h118.938v-2.611c0-13.312-23.859-15.872-40.192-18.125-5.53-0.768-16.589-1.894-19.763-3.482 30.157-16.077 35.021-41.421 35.021-79.104 0-42.854-16.794-65.536-34.611-81.51-11.008-9.83-19.712-17.664-19.712-28.006 0-10.138 11.878-20.582 25.702-32.717 22.579-19.866 53.555-47.053 53.555-92.723 0-47.206-20.326-80.998-60.365-100.454zM743.782 461.261h-77.619v-77.619h-49.152v77.619h-77.619v49.152h77.619v77.568h49.152v-77.619h77.619v-49.101zM421.018 401.869c-2.662 0-5.325-0.102-7.987-0.307-22.733-1.638-43.725-10.189-58.931-24.013-15.053-13.619-22.682-30.771-21.606-48.179 2.253-36.352 41.37-57.702 88.781-54.272 46.746 3.379 77.875 30.259 75.571 66.662-2.202 34.253-31.949 60.109-75.827 60.109z" />
<glyph unicode="&#x12c;" glyph-name="pinterest" d="M441.139 295.526c-26.88-140.954-59.699-276.122-156.979-346.726-30.003 213.094 44.083 373.094 78.49 542.976-58.675 98.816 7.066 297.574 130.867 248.576 152.32-60.262-131.891-367.258 58.88-405.606 199.219-40.038 280.525 345.6 157.030 470.989-178.483 181.146-519.578 4.198-477.594-255.027 10.189-63.386 75.674-82.637 26.163-170.086-114.227 25.293-148.326 115.405-143.923 235.52 7.066 196.557 176.64 334.182 346.726 353.229 215.142 24.115 417.024-78.95 444.826-281.293 31.386-228.352-97.024-475.699-327.117-457.882-62.31 4.762-88.474 35.635-137.37 65.331z" />
<glyph unicode="&#x12d;" glyph-name="pinterest2" d="M512 952.32c-271.462 0-491.52-220.058-491.52-491.52s220.058-491.52 491.52-491.52 491.52 220.058 491.52 491.52-220.058 491.52-491.52 491.52zM545.587 344.269c-31.488 2.458-44.698 18.074-69.376 33.075-13.619-71.27-30.157-139.571-79.36-175.206-15.155 107.674 22.323 188.518 39.68 274.33-29.645 49.869 3.584 150.323 66.099 125.594 76.954-30.464-66.662-185.549 29.747-204.954 100.659-20.224 141.722 174.643 79.309 237.978-90.163 91.494-262.451 2.099-241.254-128.922 5.171-32.051 38.195-41.728 13.21-85.965-57.702 12.8-74.957 58.317-72.704 118.989 3.584 99.379 89.242 168.909 175.155 178.586 108.698 12.134 210.688-39.885 224.819-142.131 15.821-115.456-49.101-240.384-165.325-231.373z" />
<glyph unicode="&#x130;" glyph-name="linkedin2" d="M259.891 816.64c0-54.426-40.192-98.509-106.291-98.509-62.208 0-102.4 44.083-102.4 98.509 0 55.706 41.523 98.509 105.011 98.509s102.4-42.803 103.68-98.509zM56.422 6.451v633.856h197.018v-633.856h-197.018zM371.354 438.118c0 79.053-2.611 145.152-5.222 202.189h171.11l9.114-88.166h3.891c25.907 41.523 89.446 102.4 195.738 102.4 129.587 0 226.816-86.835 226.816-273.51v-374.63h-197.018v351.283c0 81.664-28.57 137.421-99.84 137.421-54.426 0-86.784-37.581-101.069-73.882-5.222-12.954-6.502-31.078-6.502-49.254v-365.568h-197.018v431.718z" />
<glyph unicode="&#x131;" glyph-name="linkedin3" d="M512 952.32c-271.462 0-491.52-220.058-491.52-491.52s220.058-491.52 491.52-491.52 491.52 220.058 491.52 491.52-220.058 491.52-491.52 491.52zM391.68 257.075h-99.533v320.256h99.533v-320.256zM341.299 616.653c-31.437 0-51.763 22.323-51.763 49.818 0 28.16 20.941 49.766 53.043 49.766s51.763-21.606 52.378-49.766c0.051-27.546-20.275-49.818-53.658-49.818zM755.149 257.075h-99.482v177.51c0 41.267-14.438 69.376-50.432 69.376-27.494 0-43.827-18.995-51.098-37.325-2.611-6.502-3.277-15.718-3.277-24.832v-184.678h-99.584v218.112c0 39.936-1.28 73.37-2.611 102.144h86.426l4.608-44.493h1.946c13.107 20.941 45.21 51.712 98.918 51.712 65.485 0 114.586-43.827 114.586-138.138v-189.389z" />
<glyph unicode="&#xe600;" glyph-name="Home-icon" horiz-adv-x="1115" d="M882.336 529.959l-312.331 218.632c-3.346 2.231-7.808 2.231-11.155 0l-312.331-218.632c-2.231-1.115-3.346-3.346-4.462-6.693 0-2.231 0-5.577 1.115-6.693l42.388-60.235c2.231-2.231 4.462-4.462 7.808-4.462 2.231 0 3.346 0 5.577 2.231l264.366 185.168 264.366-185.168c4.462-3.346 10.039-2.231 13.386 2.231l42.388 60.235c1.115 2.231 2.231 4.462 1.115 6.693 1.115 3.346 0 5.577-2.231 6.693zM805.368 432.913l-234.248 163.974c-3.346 2.231-7.808 2.231-11.155 0l-236.479-165.089c-2.231-2.231-4.462-4.462-4.462-7.808v-254.327c0-5.577 4.462-10.039 10.039-10.039h163.974c5.577 0 10.039 4.462 10.039 10.039v220.863h124.932v-220.863c0-5.577 4.462-10.039 10.039-10.039h162.858c5.577 0 10.039 4.462 10.039 10.039v255.442c-2.231 3.346-3.346 6.693-5.577 7.808zM719.477 677.201l73.621-51.312c1.115-1.115 3.346-2.231 5.577-2.231 1.115 0 3.346 0 4.462 1.115 3.346 1.115 5.577 4.462 5.577 8.924v108.2c0 5.577-4.462 10.039-10.039 10.039h-73.621c-5.577 0-10.039-4.462-10.039-10.039v-56.889c0-3.346 2.231-5.577 4.462-7.808z" />
<glyph unicode="&#xe601;" glyph-name="cabinet2" d="M160-32v800l133.344 128h405.344l133.312-128v-800h-672zM192 0h608v736h-608v-736zM224 352h544v-320h-544v320zM416 224v-32h160v96h-32v-64h-96v64h-32v-64zM224 704h544v-320h-544v320zM416 544h160v96h-32v-64h-96v64h-32v-96z" />
<glyph unicode="&#xe602;" glyph-name="suitcase" d="M864 32h-128v672h128c35.328 0 64-28.672 64-64v-544c0-35.328-28.672-64-64-64zM320 704v0 64c0 35.36 28.672 64 64 64h224c35.328 0 64-28.64 64-64v-736h-352v672zM384 704h224c0 0 0 14.336 0 32 0 17.696-14.336 32-32 32h-160c-17.696 0-32-14.304-32-32 0-17.664 0-32 0-32zM64 96v544c0 35.328 28.672 64 64 64h128v-672h-128c-35.328 0-64 28.672-64 64z" />
<glyph unicode="&#xe603;" glyph-name="mail_icon" d="M789.504 681.984c0 0 0 0 0 0s0 1.024 0 0c-1.024 2.048-1.024 3.072-2.048 4.096 0 0 0 0 0 0-1.024 1.024-1.024 2.048-2.048 2.048 0 0 0 0 0 0-1.024 1.024-2.048 1.024-3.072 2.048 0 0 0 0-1.024 0s-2.048 1.024-3.072 1.024h-560.128c-1.024 0-2.048 0-3.072-1.024 0 0 0 0-1.024 0s-2.048-1.024-3.072-2.048c0 0 0 0 0 0-1.024-1.024-2.048-2.048-2.048-3.072 0 0 0 0 0 0-1.024-1.024-1.024-2.048-2.048-3.072 0 0 0 0 0 0s0 0 0 0c0-1.024 0-2.048 0-4.096v-418.816h585.728v418.816c-3.072 2.048-3.072 3.072-3.072 4.096zM736.256 664.576l-239.616-204.8-238.592 204.8h478.208zM229.376 286.72v365.568l261.12-220.16c2.048-1.024 4.096-2.048 7.168-2.048 2.048 0 5.12 1.024 7.168 2.048l261.12 220.16v-365.568h-536.576z" />
<glyph unicode="&#xe604;" glyph-name="suitcase3" d="M896 32h-768c-35.328 0-64 28.672-64 64v288h128v-96h128v96h384v-96h128v96h128v-288c0-35.328-28.672-64-64-64zM736 320v128h64v-128h-64zM224 320v128h64v-128h-64zM832 480h-128v-64h-384v64h-128v-64h-128v224c0 35.328 28.672 64 64 64h768c35.328 0 64-28.672 64-64v-224h-128v64zM608 800.672h-192v-64.672h-64v31.328h32v96.672h256.672v-96h31.328v-32h-64v64.672z" />
<glyph unicode="&#xe605;" glyph-name="Phone_icon" d="M784.384 273.408c-30.72-73.728-102.4-86.016-125.952-86.016-7.168 0-113.664-6.144-268.288 140.288-123.904 117.76-139.264 243.712-140.288 267.264s5.12 81.92 86.016 125.952c10.24 5.12 29.696 8.192 34.816 3.072 2.048-2.048 69.632-113.664 71.68-117.76s3.072-7.168 3.072-11.264c0-5.12-4.096-11.264-11.264-19.456-7.168-7.168-15.36-14.336-23.552-20.48s-16.384-13.312-23.552-20.48c-7.168-7.168-11.264-13.312-11.264-17.408 0-12.288 10.24-54.272 83.968-119.808s109.568-83.968 113.664-84.992c3.072-1.024 6.144-2.048 8.192-2.048 4.096 0 10.24 4.096 17.408 11.264s30.72 39.936 38.912 47.104c7.168 7.168 14.336 11.264 19.456 11.264 3.072 0 7.168-1.024 11.264-3.072s115.712-66.56 117.76-69.632c6.144-5.12 2.048-23.552-2.048-33.792z" />
<glyph unicode="&#xe606;" glyph-name="Bed1" horiz-adv-x="1186" d="M1181.538 108.655v-150.588c0-2.317 0-4.633 0-6.95h-90.353c0 2.317 0 4.633 0 6.95v76.452h-1000.833v-81.086h-83.403v630.154c0 20.851 18.534 41.701 41.701 41.701 11.584 0 20.851-4.633 30.118-11.584 6.95-6.95 11.584-16.217 11.584-30.118v-474.932h1091.186zM356.778 333.379c0-57.578-46.676-104.253-104.253-104.253s-104.253 46.676-104.253 104.253c0 57.578 46.676 104.253 104.253 104.253s104.253-46.676 104.253-104.253zM1181.538 335.696v-148.271h-776.109v148.271c0 34.751 27.801 62.552 62.552 62.552h653.321c32.434 2.317 60.235-27.801 60.235-62.552z" />
<glyph unicode="&#xe607;" glyph-name="Castle" horiz-adv-x="1116" d="M143.796 27.234v941.209h165.583v-111.115h163.404v111.115h165.583v-111.115h163.404v111.115h163.404v-941.209h132.902c8.715 0 13.072-4.357 13.072-13.072v-52.289c0-8.715-4.357-13.072-13.072-13.072h-1082.826c-8.715 0-13.072 4.357-13.072 13.072v52.289c0 8.715 4.357 13.072 13.072 13.072h128.545zM396.528 273.43v-246.196h311.557v246.196c0 41.396-15.251 78.434-45.753 108.936s-67.54 45.753-108.936 45.753c-41.396 0-78.434-15.251-108.936-45.753-32.681-30.502-47.932-67.54-47.932-108.936z" />
<glyph unicode="&#xe608;" glyph-name="chart" d="M479.68 418.72c0 0 1.312 416.288 0.32 416.288-216.928 0-384-189.088-384-409.984s179.104-393.984 400-393.984c220.864 0 400 165.088 400 385.984 0 1.856-416.32 1.696-416.32 1.696zM928 451.008c0 220.928-197.088 414.016-417.984 414.016 3.072 0 0-414.016 0-414.016s417.984-1.216 417.984 0z" />
<glyph unicode="&#xe609;" glyph-name="chart2" d="M543.936 481.856c0 0 3.072 383.552 0 383.552 220.672 0 383.552-162.88 383.552-383.552 0-1.216-383.552 0-383.552 0zM895.552 403.136c0-229.472-186.048-415.52-415.52-415.52-229.504 0-415.52 186.048-415.52 415.52 0 229.504 186.016 415.52 415.52 415.52 10.784 0 21.376-0.768 31.968-1.6v-367.168h381.056c1.6-14.72 2.496-31.616 2.496-46.752zM861.6 415.936h-381.568v370.752c-211.84 0-383.552-171.744-383.552-383.584s171.712-383.52 383.552-383.52 383.552 171.68 383.552 383.52c0 41.28-1.984 12.832-1.984 12.832z" />
<glyph unicode="&#xe60a;" glyph-name="chart3" d="M127.584 832h-31.584v-768h832v30.816l-799.872 1.6-0.544 735.584zM352 800c0 17.696-14.336 32-32 32h-96c-17.696 0-32-14.304-32-32v-640h160v640zM544 608c0 17.696-14.336 32-32 32h-96c-17.696 0-32-14.304-32-32v-448h160v448zM736 416c0 17.696-14.336 32-32 32h-96c-17.696 0-32-14.304-32-32v-256h160v256zM896 256h-96c-17.696 0-32-14.304-32-32v-64h160v64c0 17.696-14.336 32-32 32z" />
<glyph unicode="&#xe60b;" glyph-name="chart4" d="M127.584 832h-31.584v-768h832v30.816l-799.872 1.6-0.544 735.584zM544 800c0 17.696-14.336 32-32 32h-96c-17.696 0-32-14.304-32-32v-640h160v640zM352 608c0 17.664-14.336 32-32 32h-96c-17.696 0-32-14.336-32-32v-448h160v448zM736 416c0 17.696-14.336 32-32 32h-96c-17.696 0-32-14.304-32-32v-256h160v256zM896 256h-96c-17.696 0-32-14.304-32-32v-64h160v64c0 17.696-14.336 32-32 32z" />
<glyph unicode="&#xe60c;" glyph-name="gamepad" horiz-adv-x="1054" d="M736.448 817.312c-45.312 0-133.312-64-208-64-74.656 0-168 64-208 64-274.656 0-432-738.624-226.656-738.624 173.344 0 196.672 216 433.984 216 192 0 304.672-213.376 432.672-213.376 205.312 0 50.688 736-224 736zM304.416 401.312c-79.52 0-144 64.512-144 144 0 79.52 64.48 144 144 144s144-64.48 144-144c0-79.488-64.448-144-144-144zM686.432 481.312c-17.696 0-32 14.304-32 32s14.304 32 32 32 32-14.304 32-32-14.304-32-32-32zM784.448 385.312c-17.696 0-32 14.304-32 32s14.304 32 32 32 32-14.304 32-32-14.336-32-32-32zM784.448 577.312c-17.696 0-32 14.304-32 32s14.304 32 32 32 32-14.304 32-32-14.336-32-32-32zM880.448 481.312c-17.696 0-32 14.304-32 32s14.304 32 32 32 32-14.304 32-32-14.336-32-32-32zM304.416 625.312c-44.16 0-80-35.808-80-80s35.84-80 80-80c44.192 0 80 35.808 80 80s-35.808 80-80 80z" />
<glyph unicode="&#xe60d;" glyph-name="phone" d="M490.592 327.68c-0.832 0.576-97.088 162.4-97.408 164.48-19.904 43.488-35.968 87.968-2.496 107.712l-138.912 234.24c-36-26.912-137.824-172.96 52.768-503.936 200.768-348.8 391.84-334.304 430.144-310.688l-135.36 228.64c-32-18.816-58.944 12.192-108.736 79.552zM827.584 108.256l0.032 0.192c0 0-105.696 178.112-105.76 178.176-8.384 14.112-26.4 18.56-40.448 10.368l-64.768-38.304 135.744-229.312c0 0 64.768 38.112 64.736 38.24h0.128c14.88 8.832 18.304 27.072 10.336 40.64zM473.152 648.448v0.128c14.88 8.8 18.368 27.040 10.4 40.48l0.064 0.192c0 0-108.736 183.328-108.8 183.36-8.352 14.176-26.432 18.56-40.416 10.368l-64.768-38.304 138.752-234.368c0 0 64.736 38.048 64.768 38.144z" />
<glyph unicode="&#xe60e;" glyph-name="flower" horiz-adv-x="1116" d="M1065.396 591.523c-21.787 69.719-91.506 95.864-161.226 71.898-45.753-15.251-200.443-87.149-285.413-152.511 34.86 102.4 56.647 267.983 56.647 318.094 0 71.898-45.753 132.902-119.83 132.902-71.898 0-119.83-58.826-119.83-132.902 0-47.932 21.787-213.515 56.647-313.736-87.149 65.362-235.302 135.081-283.234 152.511-69.719 21.787-139.438-2.179-161.226-71.898s19.609-130.723 89.328-152.511c47.932-15.251 217.872-47.932 324.63-43.574-89.328-58.826-209.157-187.37-239.66-226.587-41.396-58.826-41.396-132.902 19.609-176.477 58.826-41.396 130.723-21.787 172.119 37.038 28.323 39.217 108.936 183.013 139.438 287.591 30.502-102.4 111.115-248.374 139.438-287.591 41.396-58.826 115.472-78.434 172.119-37.038 58.826 41.396 61.004 117.651 19.609 176.477-28.323 41.396-148.153 165.583-239.66 226.587 108.936-4.357 278.877 28.323 324.63 43.574 76.255 17.43 119.83 78.434 95.864 148.153z" />
<glyph unicode="&#xe60f;" glyph-name="Shopping" horiz-adv-x="1116" d="M457.532 587.166c-19.609 0-34.86-15.251-34.86-34.86s15.251-34.86 34.86-34.86c19.609 0 34.86 15.251 34.86 34.86 0 17.43-15.251 34.86-34.86 34.86zM784.34 691.745v32.681c0 71.898-21.787 135.081-61.004 180.834s-93.685 71.898-152.511 71.898c-58.826 0-113.294-26.145-152.511-71.898s-61.004-108.936-61.004-180.834v-32.681h-139.438v-727.694h703.728v727.694h-137.26zM470.604 264.715l-100.221 244.017 61.004 108.936 122.009-34.86 100.221-244.017-183.013-74.077zM712.443 691.745h-281.055v32.681c2.179 119.83 65.362 180.834 141.617 180.834s139.438-63.183 141.617-180.834v-32.681h-2.179z" />
<glyph unicode="&#xe610;" glyph-name="map" d="M639.52 62.4l225.056 102.848v668.352l-225.056-102.816v-668.384zM384.48 165.248l223.36-92.576v668.384l-223.36 92.544v-668.352zM127.392 730.784v-668.384l225.376 92.544v668.384l-225.376-92.544z" />
<glyph unicode="&#xe611;" d="M0 972.8h1024v-1024h-1024v1024z" />
<glyph unicode="&#xe612;" glyph-name="box" d="M55.52 389.376l385.728-194.592 68.864 194.592-385.696 184.256-68.896-184.256zM518.752 389.376l65.44-192.864 399.488 194.592-77.504 182.528-387.424-184.256zM-7.904 729.216l132.608-154.976 385.696 196.288-125.696 160.16-392.608-201.472zM1031.904 725.792l-384.032 204.896-130.88-160.16 389.184-196.288 125.728 151.552zM101.6 340.704l-1.312-186.848 406.816-188.576v351.36l-58.112-151.552-347.392 175.616zM521.312 316.64v-351.328l405.568 188.576v185.568l-351.68-174.72-53.888 151.904z" />
<glyph unicode="&#xe613;" glyph-name="box2" d="M64.16 229.6l417.248-197.408v441.6l-417.248 176.64v-420.832zM192.192 486.688l160.832-74.784-0.928-58.944-160.8 74.752 0.896 58.976zM512 473.792v-441.6l415.808 197.408v420.832l-415.808-176.64zM494.496 863.808l-427.616-184.224 428-182.784 432.448 183.2-432.832 183.808z" />
<glyph unicode="&#xe614;" d="M588.298-51.2h168.659c0 0 0 224.878 0 407.592h114.447l14.055 144.565h-128.502v84.329c0 32.125 22.086 40.157 36.141 40.157s90.353 0 90.353 0v140.549h-126.494c-138.541 0-170.667-104.408-170.667-170.667v-92.361h-80.314v-144.565h80.314c2.008-186.729 2.008-409.6 2.008-409.6z" />
<glyph unicode="&#xe615;" glyph-name="auction" d="M371.936 716.704l193.984-112c15.328-8.832 34.88-3.584 43.68 11.712 8.864 15.296 3.616 34.88-11.68 43.68l-193.984 112c-15.328 8.832-34.88 3.584-43.712-11.68-8.864-15.296-3.584-34.848 11.712-43.712zM549.952 576.992l-193.984 112-112-193.984 193.984-112 112 193.984zM195.936 411.872l193.984-112c15.296-8.832 34.88-3.584 43.68 11.712 8.832 15.296 3.584 34.88-11.68 43.68l-193.984 112c-15.328 8.832-34.88 3.584-43.712-11.68-8.864-15.296-3.584-34.88 11.712-43.712zM864.384 321.568l-354.432 186.144-32-55.424 338.432-213.856c22.944-13.248 52.32-5.408 65.568 17.568s5.376 52.32-17.568 65.568zM513.056 160c0 17.696-14.336 32-32 32h-288c-17.696 0-32-14.304-32-32 0-17.664 0-32 0-32l-33.056 0.672 1.056-32.672h416l1.504 30.656-31.488 1.344c0 0-2.016 14.336-2.016 32z" />
<glyph unicode="&#xe616;" glyph-name="arrow-right2" d="M992 448l-480 480v-288h-512v-384h512v-288z" />
<glyph unicode="&#xe617;" glyph-name="stats" d="M191.936 800h-31.584v-736h640v30.816l-607.872 1.568-0.544 703.616zM256.352 160h160v348l-160-160v-188zM448.352 160h160v316l-64-64-96 96v-348zM640.352 160h160v485.984l-160-160v-325.984zM428.384 605.856l115.84-115.2 228.736 227.584 58.688-59.008-1.408 140.768-141.28-0.736 54.944-55.104-199.744-200.32-118.048 118.496-179.936-179.328 30.048-29.184 152.16 152.032z" />
<glyph unicode="&#xe618;" glyph-name="arrow-right-thick" d="M451.669 657.664c-33.323-33.237-33.323-87.339 0-120.661l67.669-67.669h-309.077c-47.104 0-85.333-38.187-85.333-85.333 0-47.104 38.229-85.333 85.333-85.333h309.077l-67.669-67.669c-33.323-33.237-33.323-87.339 0-120.661 16.683-16.683 38.485-25.003 60.331-25.003s43.648 8.32 60.331 25.003l273.664 273.664-273.664 273.664c-33.323 33.323-87.339 33.323-120.661 0z" />
<glyph unicode="&#xe619;" glyph-name="attachment" d="M737.952 529.888c0 0 37.504 28.512 8.992 57.024-28.576 28.512-56.32-8.288-56.32-8.288l-223.008-223.040c0 0-67.296-86.752-118.272-34.24s34.24 118.272 34.24 118.272l312.288 312.32c0 0 87.808 96.736 170.304 14.24 82.496-82.528-14.496-170.528-14.496-170.528l-422.816-422.848c0 0-135.296-156.288-260.576-31.008s32.512 259.040 32.512 259.040l321.088 321.088c0 0 36 30.016 8.992 57.024s-56.992-8.992-56.992-8.992l-368.32-368.352c0 0-139.040-152.544 16.256-307.776 155.296-155.296 307.808-16.288 307.808-16.288l506.304 506.336c0 0 101.248 111.776-19.488 232.576s-232.576 19.488-232.576 19.488l-371.52-371.552c0 0-111.68-90.688-10.4-191.936 101.28-101.28 190.432 11.904 190.432 11.904l245.568 245.536z" />
<glyph unicode="&#xe61a;" glyph-name="hourglass" d="M784 64c8.8 0 16-7.168 16-16s0-48 0-48h-608c0 0 0 39.168 0 48s7.168 16 16 16h53.44c2.656 213.056 141.824 281.728 141.824 367.84 0 86.56-141.728 92.32-143.072 368.16h-52.192c-8.832 0-16 7.168-16 16s0 48 0 48h608c0 0 0-39.168 0-48s-7.2-16-16-16h-48.96c-1.344-275.84-143.072-281.6-143.072-368.16 0-86.112 139.2-154.784 141.856-367.84h50.176zM547.552 431.84c0 86.912 141.76 92.32 143.072 368.16h-386.016c1.312-275.84 143.072-281.248 143.072-368.16 0-83.552-139.232-153.984-141.856-367.84h24.256c5.696 18.976 24.608 41.792 57.28 58.688l42.464 21.664c26.688 13.792 42.688 23.104 48 27.904s11.328 15.552 18.048 32.256c7.072-16.672 13.12-27.424 18.24-32.256s20.928-14.112 47.488-27.904l42.24-21.664c32.48-16.896 51.328-39.712 56.928-58.688h28.608c-2.624 213.856-141.824 284.288-141.824 367.84zM514.24 478.816c-3.84-7.552-7.072-21.92-9.632-43.104-0.64-6.4-2.048-16.032-4.32-28.864-2.24 12.832-3.68 22.464-4.32 28.864-2.592 21.184-5.824 35.52-9.696 43.104-3.872 7.52-14.784 21.056-32.8 40.672l-40.032 43.776c-27.36 29.504-44.896 50.688-52.608 63.488 47.488-30.24 93.856-45.376 139.104-45.376s91.776 15.136 139.584 45.376c-8-12.8-25.6-33.984-52.768-63.488l-39.872-43.776c-17.92-19.616-28.832-33.152-32.64-40.672z" />
<glyph unicode="&#xe61b;" glyph-name="abacus" d="M96 32v800h800v-800h-800zM832 768h-672v-192h64.544c4.768 35.84 23.872 62.688 46.784 62.688 22.944 0 42.048-26.848 46.784-62.688h34.272c4.608 36.192 23.84 63.328 46.912 63.328s42.304-27.168 46.912-63.328h226.144c4.608 36.192 23.84 63.328 46.912 63.328 23.104 0 42.304-27.168 46.944-63.328h65.792v192zM832 544h-65.6c-4.288-36.832-23.712-64.672-47.104-64.672-23.328 0-42.752 27.808-47.072 64.672h-225.824c-4.288-36.832-23.712-64.672-47.072-64.672s-42.784 27.84-47.072 64.672h-33.824c-4.128-37.152-23.616-65.312-47.104-65.312s-42.976 28.16-47.104 65.312h-64.224v-224h255.744c4.608 36.192 23.872 63.328 46.912 63.328 23.072 0 42.336-27.168 46.944-63.328h31.968c4.128 37.152 23.616 65.344 47.136 65.344 23.456 0 42.944-28.192 47.104-65.344h35.84c4.448 36.544 23.808 64 47.040 64s42.592-27.456 47.040-64h66.272v224zM832 288h-66.304c-4.448-36.512-23.808-64-47.040-64s-42.592 27.488-47.040 64h-36.16c-4.768-35.808-23.872-62.656-46.784-62.656-22.944 0-42.048 26.848-46.816 62.656h-32.128c-4.288-36.832-23.712-64.672-47.072-64.672-23.328 0-42.752 27.808-47.072 64.672h-255.584v-192h672v192z" />
<glyph unicode="&#xe61c;" glyph-name="circle-cross" d="M512 896q95.667 0 182.5-37.167t149.667-100 100-149.667 37.167-182.5-37.167-182.5-100-149.667-149.667-100-182.5-37.167-182.5 37.167-149.667 100-100 149.667-37.167 182.5 37.167 182.5 100 149.667 149.667 100 182.5 37.167zM512 810.667q-78 0-149.167-30.5t-122.5-81.833-81.833-122.5-30.5-149.167 30.5-149.167 81.833-122.5 122.5-81.833 149.167-30.5 149.167 30.5 122.5 81.833 81.833 122.5 30.5 149.167-30.5 149.167-81.833 122.5-122.5 81.833-149.167 30.5zM632.667 590.334q17.667 0 30.333-12.5t12.667-30.167-12.667-30.333l-90.667-90.667 90.667-90.333q12.667-12.667 12.667-30 0-17.667-12.667-30.167t-30.333-12.5-30 12.333l-90.667 90.333-90.333-90.333q-12.333-12.333-30.333-12.333-17.667 0-30.167 12.333t-12.5 30q0 18 12.333 30.333l90.667 90.333-90.667 90.667q-12.333 12.333-12.333 30t12.5 30.333 30.167 12.667 30.333-12.667l90.333-90.667 90.667 90.667q12.667 12.667 30 12.667z" />
<glyph unicode="&#xe61d;" glyph-name="pig" d="M789.568 258.912c0 0 106.56 72.896 106.56 216.672 0 214.016-226.816 293.152-348.768 291.040-121.984-2.144-158.336-34.24-158.336-34.24s-41.504 30.176-85.504 55.456c-33.664 13.12-41.472 15.008-64.864 7.488-18.72 0-6.944-31.168 0.576-42.4 7.456-11.232 43.712-73.28 43.712-73.28s-76.096-78.368-81.728-129.888c0 0.928-35.84 0.288-55.488 0.288s-17.792-21.408-17.792-21.408l0.544-150.848c0 0-1.216-21.408 16.608-21.408 17.792 0 55.616-0.416 55.616-0.416s53.216-77.28 86.944-91.328c0-0.928-29.152-80.096-29.152-80.096s-14.048-24.352 11.232-33.728c25.28-9.344 91.232-37.024 119.328-45.472 28.064-8.416 32.096 10.688 32.096 10.688l27.808 60.064 181.92-0.288 27.808-61.92c0 0 5.344-28.736 42.784-12.832 37.472 15.904 78.368 34.784 109.28 50.688 30.88 15.904 10.56 45.632 10.56 45.632l-31.744 61.536zM298.304 519.552c-17.056 0-30.88 13.856-30.88 30.912s13.824 30.88 30.88 30.88 30.912-13.824 30.912-30.88-13.856-30.912-30.912-30.912zM733.6 615.808c-9.856-11.68-16.288-3.072-24.224-0.736 0 0-33.632 31.2-83.040 45.76-51.168 15.040-105.024 7.776-105.024 7.776-7.936 2.336-17.568 2.592-17.632 14.848 0.416 15.136 18.784 15.264 18.56 15.776 0 0 60.608 5.6 111.328-9.312 49.888-14.656 88-46.528 88-46.528s20.384-14.048 12.032-27.584z" />
<glyph unicode="&#xe61e;" glyph-name="badplats" horiz-adv-x="1448" d="M1428.83 473.619v12.185c-27.139-9.141-57.602-18.276-93.883-18.276-45.417 0-81.697 15.232-117.978 30.187-30.187 12.185-57.602 24.092-93.883 24.092s-60.376-12.185-93.883-24.092c-33.234-15.232-69.511-27.139-114.932-27.139s-81.697 15.232-114.932 30.187c-30.187 15.232-57.602 24.092-93.883 24.092s-60.376-12.185-93.883-24.092c-33.234-15.232-69.511-27.139-114.932-27.139s-81.697 15.232-117.978 30.187c-30.187 12.185-57.602 24.092-93.883 24.092-33.234 0-60.376-12.185-93.883-24.092-33.234-15.232-69.511-27.139-114.932-27.139-18.276 0-39.327 3.046-57.602 9.141l-15.232 3.046v-93.883l9.141-3.046c24.092-9.141 45.417-15.232 63.421-15.232 33.234 0 63.421 12.185 93.883 24.092 33.234 15.232 69.511 27.139 114.932 27.139s81.697-15.232 114.932-30.187c30.187-12.185 57.602-24.092 93.883-24.092 33.234 0 63.421 12.185 93.883 24.092 33.234 15.232 69.511 27.139 114.932 27.139s81.697-15.232 114.932-30.187c30.187-12.185 57.602-24.092 93.883-24.092s63.421 12.185 93.883 24.092c33.234 15.232 69.511 27.139 114.932 27.139s81.697-15.232 114.932-30.187c30.187-12.185 57.602-24.092 93.883-24.092s60.376 12.185 93.883 24.092h3.046v6.091c3.046 0 6.091 3.046 9.141 3.046s3.046 3.046 6.091 3.046v12.185c-3.046-3.046-9.141-3.046-9.141-3.046-30.187-12.185-54.557-21.047-84.745-21.047h-3.046c27.139 0 54.557 9.141 81.697 21.047 3.046 3.046 9.141 3.046 9.141 3.046v42.372c3.046 0 3.046 0 6.091 3.046v12.185c-21.047-6.091-45.417-15.232-69.511-18.276 18.276 6.37 39.602 12.465 57.602 18.276zM1011.48 416.29c-30.187-12.185-54.557-21.047-84.745-21.047h-3.046c27.139 0 54.557 9.141 81.697 21.047 36.28 15.232 75.606 30.187 127.114 30.187h3.046c-48.465-3.046-87.791-18.001-124.071-30.187zM594.124 416.29c-30.187-12.185-54.557-21.047-84.745-21.047h-3.046c27.139 0 54.557 9.141 81.697 21.047 36.28 15.232 75.606 30.187 127.114 30.187h3.046c-51.513-3.046-87.791-18.001-124.071-30.187zM173.729 416.29c-30.187-12.185-54.557-21.047-84.745-21.047h-3.046c27.139 0 54.557 9.141 81.697 21.047 36.28 15.232 75.606 30.187 127.114 30.187h3.046c-48.465-3.046-87.791-18.001-124.071-30.187zM385.313 473.619c33.234-12.185 72.562-27.139 121.023-30.187h-3.046c-48.465 0-90.837 15.232-124.071 30.187-27.139 12.185-54.557 21.047-81.697 21.047h3.046c30.46 0.278 54.557-8.862 84.745-21.047zM796.847 473.619c-30.187 12.185-54.557 21.047-81.697 21.047h3.046c30.187 0 54.557-9.141 84.745-21.047 33.234-12.185 72.562-27.139 121.023-30.187h-3.046c-48.465 0-87.791 15.232-124.071 30.187zM85.939 443.429v0c-18.276 0-33.234 3.046-48.465 6.091v0c18.276-3.046 33.234-6.091 48.465-6.091zM79.847 394.964c-6.091 0-9.141 0-15.232 3.046 6.091-3.046 12.185-3.046 15.232-3.046zM1132.501 494.944c3.046 0 3.046 0 0 0 33.234 0 57.602-9.141 87.791-21.047 33.234-12.185 72.562-30.187 121.023-30.187h-3.046c-48.465 0-90.837 15.232-124.071 30.187-27.139 8.862-54.557 21.047-81.697 21.047zM1035.572 482.758c30.187 12.185 57.602 24.092 87.791 24.092h3.046c-30.187 0-54.557-9.141-84.745-24.092-36.28-15.232-72.562-30.187-121.023-30.187h-3.046c48.465 3.046 87.791 18.276 117.978 30.187zM621.267 482.758c30.187 12.185 57.602 24.092 87.791 24.092h3.046c-30.187 0-54.557-9.141-84.745-24.092-36.28-15.232-72.562-30.187-121.023-30.187h-3.046c45.417 3.046 84.745 18.276 117.978 30.187zM203.914 482.758c30.187 12.185 57.602 24.092 87.791 24.092h3.046c-30.187 0-54.557-9.141-84.745-24.092-36.28-15.232-72.562-30.187-121.023-30.187h-3.046c45.417 3.046 84.745 18.276 117.978 30.187zM22.241 394.964v66.465c3.046 0 3.046 0 6.091 0v-66.465c21.047-6.091 39.327-12.185 57.602-12.185h-3.046c-21.325 0.278-39.327 3.326-60.65 12.185zM412.453 407.154c-33.234 12.185-72.562 27.139-117.978 30.187h3.046c48.465 0 87.791-15.232 121.023-30.187 30.187-12.185 54.557-21.047 84.745-24.092h-3.046c-30.187 0-54.281 9.141-87.791 24.092zM833.128 407.154c-33.234 12.185-72.562 27.139-117.978 30.187h3.046c48.465 0 87.791-15.232 121.023-30.187 30.187-12.185 54.557-21.047 84.745-24.092h-3.046c-30.46 0-57.602 9.141-87.791 24.092zM1250.477 407.154c-33.234 12.185-72.562 27.139-117.978 30.187h3.046c48.465 0 87.791-15.232 121.023-30.187 30.187-12.185 54.557-21.047 84.745-24.092h-3.046c-30.187 0-54.557 9.141-87.791 24.092zM1428.83 234.89v15.232c-27.139-9.141-57.602-18.276-93.883-18.276-45.417 0-81.697 15.232-117.978 30.187-30.187 12.185-57.602 24.092-93.883 24.092s-60.376-12.185-93.883-24.092c-33.234-15.232-69.511-27.139-114.932-27.139s-81.697 15.232-114.932 30.187c-30.187 15.232-57.602 24.092-93.883 24.092s-60.376-12.185-93.883-24.092c-33.234-15.232-69.511-27.139-114.932-27.139s-81.697 15.232-117.978 30.187c-30.187 12.185-57.602 24.092-93.883 24.092-33.234 0-60.376-12.185-93.883-24.092-33.234-15.232-69.511-27.139-114.932-27.139-18.276 0-39.327 3.046-57.602 9.141l-15.232 3.046v-87.791l9.141-3.046c24.092-9.141 45.417-15.232 63.421-15.232 33.234 0 63.421 12.185 93.883 24.092 33.234 15.232 69.511 27.139 114.932 27.139s81.697-15.232 114.932-30.187c30.187-12.185 57.602-24.092 93.883-24.092 33.234 0 63.421 12.185 93.883 24.092 33.234 15.232 69.511 27.139 114.932 27.139s81.697-15.232 114.932-30.187c30.187-12.185 57.602-24.092 93.883-24.092s63.421 12.185 93.883 24.092c33.234 15.232 69.511 27.139 114.932 27.139s81.697-15.232 114.932-30.187c30.187-12.185 57.602-24.092 93.883-24.092s60.376 12.185 93.883 24.092h3.046v6.091c3.046 0 6.091 3.046 9.141 3.046s3.046 3.046 6.091 3.046v9.141c-3.046-3.046-9.141-3.046-9.141-3.046-30.187-12.185-54.557-21.047-84.745-21.047h-3.046c27.139 0 54.557 9.141 81.697 21.047 3.046 3.046 9.141 3.046 9.141 3.046v42.372c3.046 0 3.046 0 6.091 3.046v12.185c-6.091-3.046-15.232-6.091-21.047-6.091 0.278-3.046 6.091 0 9.141 0zM926.733 159.013c0 0-3.046 0 0 0 24.092 0 51.513 9.141 78.653 21.047 36.28 15.232 75.606 30.187 127.114 30.187h3.046c-48.465 0-87.791-15.232-124.071-30.187-30.187-11.91-54.557-21.047-84.745-21.047zM509.383 159.013c-3.046 0-3.046 0 0 0 24.092 0 51.513 9.141 78.653 21.047 36.28 15.232 75.606 30.187 127.114 30.187h3.046c-48.465 0-87.791-15.232-124.071-30.187-30.187-11.91-57.602-21.047-84.745-21.047zM88.986 159.013h-3.046c27.139 0 54.557 9.141 81.697 21.047 36.28 15.232 75.606 30.187 127.114 30.187h3.046c-48.465 0-87.791-15.232-124.071-30.187-27.417-11.91-54.557-21.047-84.745-21.047zM796.847 237.663c-30.187 12.185-54.557 21.047-81.697 21.047h3.046c30.187 0 54.557-9.141 84.745-21.047 33.234-12.185 72.562-27.139 121.023-30.187h-3.046c-48.465 0-87.791 15.232-124.071 30.187zM379.222 237.663c-27.139 12.185-54.557 21.047-81.697 21.047h3.046c30.187 0 54.557-9.141 84.745-21.047 33.234-12.185 72.562-27.139 121.023-30.187h-3.046c-51.513 0-90.837 15.232-124.071 30.187zM85.939 207.475v0c-18.276 0-33.234 3.046-48.465 6.091v0c18.276-3.046 33.234-6.091 48.465-6.091zM79.847 159.013c-6.091 0-9.141 0-15.232 3.046 6.091-3.046 12.185-3.046 15.232-3.046zM1135.546 258.986v0c33.234 0 57.602-9.141 87.791-21.047 33.234-12.185 72.562-30.187 121.023-30.187h-3.046c-48.465 0-90.837 15.232-124.071 30.187-30.187 11.91-57.602 21.047-81.697 21.047zM1035.572 243.756c6.091 3.046 9.141 3.046 15.232 6.091-3.046 0-6.091-3.046-9.141-3.046-9.141-3.046-18.276-6.091-27.139-12.185 9.141 3.046 15.232 6.091 21.047 9.141zM621.267 243.756c6.091 3.046 9.141 3.046 15.232 6.091-3.046 0-6.091-3.046-9.141-3.046-9.141-3.046-18.276-6.091-27.139-12.185 5.816 3.046 11.91 6.091 21.047 9.141zM203.914 243.756c6.091 3.046 9.141 3.046 15.232 6.091-3.046 0-6.091-3.046-9.141-3.046-9.141-3.046-18.276-6.091-27.139-12.185 5.816 3.046 14.956 6.091 21.047 9.141zM22.241 156.244v66.465c3.046 0 3.046 0 6.091 0v-63.695c21.047-9.141 42.372-12.185 60.376-12.185 12.185 0 21.047 3.046 33.234 3.046-12.185-3.046-24.092-6.091-39.327-6.091-21.047 0.278-39.049 6.37-60.376 12.465zM412.453 168.151c-33.234 15.232-72.562 30.187-121.023 30.187-33.234 0-63.421-9.141-90.837-18.276 27.139 9.141 60.376 21.047 96.929 21.047 48.465 0 87.791-15.232 121.023-30.187 30.187-12.185 57.602-24.092 87.791-24.092 12.185 0 21.047 3.046 33.234 3.046-12.185-3.046-24.092-6.091-39.327-6.091-30.187 0.278-54.281 12.465-87.791 24.37zM833.128 168.151c-33.234 15.232-72.562 30.187-121.023 30.187-33.234 0-63.421-9.141-90.837-18.276 27.139 9.141 60.376 21.047 96.929 21.047 48.465 0 87.791-15.232 121.023-30.187 30.187-12.185 57.602-24.092 87.791-24.092 12.185 0 21.047 3.046 33.234 3.046-12.185-3.046-24.092-6.091-39.327-6.091-30.46 0.278-57.602 12.465-87.791 24.37zM1377.596 150.15c-12.185-3.046-24.092-6.091-39.327-6.091-30.187 0-57.602 9.141-87.791 24.092-33.234 15.232-72.562 30.187-121.023 30.187-33.234 0-63.421-9.141-90.837-18.276 27.139 9.141 60.376 21.047 96.929 21.047 48.465 0 87.791-15.232 121.023-30.187 30.187-12.185 57.602-24.092 87.791-24.092 11.91 0.278 24.092 0.278 33.234 3.326zM1423.014 658.337c3.046 3.046 9.141 3.046 9.141 3.046v36.28c3.046 0 6.091 3.046 9.141 3.046v12.185c-27.139-9.141-57.602-18.276-93.883-18.276-3.046 0-3.046 0-6.091 0 33.234 0 60.376 9.141 84.745 18.276v12.185c-27.139-9.141-57.602-18.276-93.883-18.276-45.417 0-81.697 15.232-114.932 30.187-30.187 15.232-57.602 24.092-93.883 24.092s-60.376-12.185-93.883-24.092c-33.234-15.232-69.511-30.187-114.932-30.187s-81.697 15.232-114.932 30.187c-30.187 15.232-57.602 24.092-93.883 24.092s-60.376-12.185-93.883-24.092c-33.234-15.232-69.511-30.187-114.932-30.187s-81.697 15.232-114.932 30.187c-30.187 15.232-57.602 24.092-93.883 24.092s-60.376-12.185-93.883-24.092c-33.234-15.232-69.511-30.187-114.932-30.187-18.276 0-39.327 3.046-57.602 9.141l-15.232 3.046v-87.791l9.141-3.046c24.092-9.141 45.417-15.232 63.421-15.232 33.234 0 60.376 12.185 93.883 24.092 33.234 15.232 69.511 30.187 117.978 30.187 45.417 0 84.745-15.232 117.978-30.187 30.187-12.185 57.602-24.092 93.883-24.092s60.376 12.185 93.883 24.092c33.234 15.232 69.511 30.187 117.978 30.187s84.745-15.232 117.978-30.187c30.187-12.185 57.602-24.092 93.883-24.092 33.234 0 60.376 12.185 93.883 24.092 33.234 15.232 69.511 30.187 117.978 30.187 45.417 0 84.745-15.232 117.978-30.187 30.187-12.185 57.602-24.092 93.883-24.092s60.376 12.185 93.883 24.092h3.046v12.185c-3.046 0-6.091 0-6.091 0v0c3.046 0 3.046 3.046 6.091 3.046v12.185c-3.046-3.046-9.141-3.046-9.141-3.046-30.187-12.185-54.557-21.047-84.745-21.047-15.232 0-30.187 3.046-48.465 9.141 12.185-3.046 27.139-6.091 39.327-6.091 21.325-6.37 48.465 5.816 78.925 14.956zM926.733 637.014c-15.232 0-30.187 3.046-48.465 9.141 12.185-3.046 27.139-6.091 39.327-6.091 30.187 0 54.557 9.141 84.745 21.047 36.28 15.232 75.606 30.187 127.114 30.187 27.139 0 51.513-6.091 72.562-12.185-18.276 6.091-39.327 9.141-63.421 9.141-48.465 0-90.837-15.232-127.114-30.187-30.187-11.91-54.557-21.047-84.745-21.047zM509.383 637.014c-15.232 0-30.187 3.046-45.417 6.091 12.185-3.046 24.092-6.091 39.327-6.091 30.187 0 54.557 9.141 84.745 21.047 36.28 15.232 75.606 30.187 127.114 30.187 27.139 0 51.513-6.091 72.562-12.185-21.047 6.091-42.372 9.141-66.465 9.141-48.465 0-90.837-15.232-127.114-30.187-30.187-8.862-57.602-18.001-84.745-18.001zM52.706 640.060c42.372-9.141 72.562 3.046 111.884 18.276 36.28 15.232 75.606 30.187 127.114 30.187 24.092 0 48.465-3.046 69.511-9.141-18.276 6.091-39.327 9.141-60.376 9.141-48.465 0-90.837-15.232-127.114-30.187-42.372-18.276-72.835-30.46-121.023-18.276zM793.801 715.667c-15.232 6.091-30.187 12.185-42.372 15.232 15.232-3.046 33.234-9.141 51.513-18.276 18.276-6.091 36.28-15.232 54.557-18.276-21.325 3.326-42.651 12.185-63.695 21.325zM376.172 715.667c-21.047 9.141-39.327 15.232-57.602 21.047 21.047-3.046 42.372-12.185 66.465-21.047 18.276-6.091 36.28-12.185 54.557-18.276-24.092 3.326-45.143 9.141-63.421 18.276zM1156.595 733.943c21.047-3.046 42.372-12.185 66.465-21.047 18.276-6.091 36.28-12.185 54.557-18.276-21.047 6.091-42.372 12.185-63.421 21.047-21.325 6.091-39.327 12.185-57.602 18.276zM1035.572 721.759c6.091 3.046 9.141 3.046 15.232 6.091-3.046 0-6.091-3.046-9.141-3.046-9.141-3.046-18.276-6.091-27.139-12.185 9.141 3.046 15.232 6.091 21.047 9.141zM621.267 721.759c6.091 3.046 9.141 3.046 15.232 6.091-3.046 0-6.091-3.046-9.141-3.046-9.141-3.046-18.276-6.091-27.139-12.185 5.816 3.046 11.91 6.091 21.047 9.141zM203.914 721.759c6.091 3.046 9.141 3.046 15.232 6.091-3.046 0-6.091-3.046-9.141-3.046-9.141-3.046-18.276-6.091-27.139-12.185 5.816 3.046 14.956 6.091 21.047 9.141zM82.892 622.057c-21.047 0-39.327 3.046-60.376 12.185v66.465c3.046 0 3.046 0 6.091 0v-63.421c21.047-9.141 42.372-12.185 60.376-12.185 12.185 0 21.047 3.046 33.234 3.046-12.185-3.046-24.37-6.091-39.327-6.091zM503.288 622.057c-30.187 0-57.602 9.141-87.791 24.092-33.234 15.232-72.562 30.187-121.023 30.187-33.234 0-63.421-9.141-90.837-18.276 27.139 9.141 60.376 21.047 96.929 21.047 48.465 0 87.791-15.232 121.023-30.187 30.187-12.185 57.602-24.092 87.791-24.092 12.185 0 21.047 3.046 33.234 3.046-12.185-2.767-27.139-5.816-39.327-5.816zM920.64 622.057c-30.187 0-57.602 9.141-87.791 24.092-33.234 15.232-72.562 30.187-121.023 30.187-33.234 0-63.421-9.141-90.837-18.276 27.139 9.141 60.376 21.047 96.929 21.047 48.465 0 87.791-15.232 121.023-30.187 30.187-12.185 57.602-24.092 87.791-24.092 12.185 0 21.047 3.046 33.234 3.046-11.91-2.767-24.092-5.816-39.327-5.816zM1377.596 627.872c-12.185-3.046-24.092-6.091-39.327-6.091-30.187 0-57.602 9.141-87.791 24.092-33.234 15.232-72.562 30.187-121.023 30.187-33.234 0-63.421-9.141-90.837-18.276 27.139 9.141 60.376 21.047 96.929 21.047 48.465 0 87.791-15.232 121.023-30.187 30.187-12.185 57.602-24.092 87.791-24.092 11.91 0.553 24.092 0.553 33.234 3.326z" />
<glyph unicode="&#xe61f;" glyph-name="addressbook" d="M864 385.984v96h64v-96h-64zM864 608h64v-96h-64v96zM864 736h64v-96h-64v96zM768 32h-576c-35.328 0-64 28.672-64 64h16c26.496 0 48 21.504 48 48s-21.504 48-48 48h-16v32h16c26.496 0 48 21.504 48 48s-21.504 48-48 48h-16v32h16c26.496 0 48 21.504 48 48s-21.504 48-48 48h-16v32h16c26.496 0 48 21.504 48 48s-21.504 48-48 48h-16v32h16c26.496 0 48 21.504 48 48s-21.504 48-48 48h-16v96c0 35.328 28.672 64 64 64h576c23.616 0 44.032-12.928 55.136-32h-631.136c-17.696 0-32-14.304-32-32 0-17.664 14.304-32 32-32h640v-672c0-35.328-28.672-64-64-64zM496 654.016c-38.656 0-70.016-41.184-70.016-92s31.328-92 70.016-92 70.016 41.184 70.016 92-31.36 92-70.016 92zM607.68 425.984c-17.248 11.488-66.912 19.136-66.912 19.136s-32.192-34.4-45.856-34.4c-13.696 0-45.888 34.4-45.888 34.4s-49.664-7.616-66.88-19.136c-17.248-11.456-24.864-72.352-24.864-72.352h275.68c0.032 0.032-5.024 58.88-25.28 72.352zM160 656c0-8.832-7.168-16-16-16h-32c-8.832 0-16 7.168-16 16s7.168 16 16 16h32c8.832 0 16-7.168 16-16zM112 544h32c8.832 0 16-7.168 16-16s-7.168-16-16-16h-32c-8.832 0-16 7.168-16 16s7.168 16 16 16zM112 416h32c8.832 0 16-7.168 16-16s-7.168-16-16-16h-32c-8.832 0-16 7.168-16 16s7.168 16 16 16zM112 288h32c8.832 0 16-7.168 16-16s-7.168-16-16-16h-32c-8.832 0-16 7.168-16 16s7.168 16 16 16zM112 160h32c8.832 0 16-7.168 16-16s-7.168-16-16-16h-32c-8.832 0-16 7.168-16 16s7.168 16 16 16z" />
<glyph unicode="&#xe620;" glyph-name="branning" horiz-adv-x="1357" d="M1054.103 163.514l23.292-3.331 23.292-9.983 19.962-16.637 16.637-16.637 9.983-23.292 3.331-26.621v-3.331l-3.331-23.292-9.983-23.292-16.637-19.962-19.962-16.637-53.235-6.652h-3.331l-23.292 3.331-23.292 9.983-16.637 16.637-16.637 19.962-9.983 23.292-3.331 26.621v3.331l3.331 23.292 9.983 23.292 16.637 16.637 19.962 16.637 23.292 9.983 29.942-3.331zM1054.103 962.068l23.292-3.331 23.292-9.983 19.962-16.637 16.637-16.637 9.983-23.292 3.331-26.621v-3.331l-3.331-23.292-9.983-23.292-16.637-19.962-19.962-16.637-26.621-6.652-26.621-3.331h-3.331l-23.292 3.331-23.292 9.983-33.273 33.273-9.983 23.292-3.331 26.621v3.331l3.331 23.292 9.983 23.292 16.637 16.637 19.962 16.637 23.292 9.983 29.942 3.331zM258.874 163.514l23.292-3.331 23.292-9.983 33.273-33.273 9.983-23.292 3.331-26.621v-3.331l-3.331-23.292-9.983-23.292-16.637-19.962-16.637-16.637-23.292-9.983-26.621-3.331h-3.331l-23.292 3.331-23.292 9.983-16.637 16.637-13.309 23.292-9.983 23.292-3.331 26.621v3.331l3.331 23.292 9.983 23.292 33.273 33.273 23.292 9.983h26.621zM258.874 962.068l23.292-3.331 23.292-9.983 33.273-33.273 9.983-23.292 3.331-26.621v-3.331l-3.331-23.292-9.983-23.292-16.637-19.962-16.637-16.637-23.292-9.983-26.621-3.331h-3.331l-23.292 3.331-23.292 9.983-16.637 16.637-13.309 19.962-9.983 23.292-3.331 26.621v3.331l3.331 23.292 9.983 23.292 33.273 33.273 23.292 9.983 26.621 3.331zM155.728 549.482h419.239v415.912h153.057v-419.239h422.569v-153.057h-425.895v-422.569h-149.727v425.895h-419.239v153.057z" />
<glyph unicode="&#xe621;" glyph-name="safe" d="M864 32l-63.968 1.984v-65.984h-96v64h-382.016l-1.984-64h-96v62.016l-64.032 1.984c-35.328 0-64 28.672-64 64v768c0 35.328 28.672 64 64 64h704c35.328 0 64-28.672 64-64v-768c0-35.328-28.672-64-64-64zM832 832h-640v-126.656l-31.328 0.64v-98.656h31.328v-253.344h-32v-97.984h32v-128h640v704zM800 160h-576v96h32v97.984h-32v254.016h32l0.672 97.344h-32.672v94.656h576v-640zM465.984 622.016c-70.688 0-128-57.312-128-128s57.312-128 128-128c70.72 0 128 57.312 128 128s-57.28 128-128 128zM752 591.424c0 17.696-14.304 32-32 32-17.664 0-32-14.304-32-32 0-11.712 6.624-21.536 16-27.104v-169.248c-9.376-5.568-16-15.36-16-27.104 0-17.664 14.336-32 32-32 17.696 0 32 14.336 32 32 0 12.608-7.424 23.232-17.984 28.448v166.56c10.56 5.248 17.984 15.872 17.984 28.448zM464 440c-26.496 0-48 21.504-48 48 0 26.528 21.504 48 48 48 26.528 0 48-21.472 48-48 0-26.496-21.472-48-48-48z" />
<glyph unicode="&#xe622;" glyph-name="camping" horiz-adv-x="1357" d="M230.652-6.808h867.616l-385.053 677.591v2.502l117.515 205.028-72.51 35.006-90.011-155.020h-5l-90.011 155.020-72.51-35.006 117.515-205.028v-2.502l-387.552-677.591zM660.708 588.27l2.502 2.502 2.502-2.502 295.040-520.069-2.502-2.502v-2.502h-147.518l25.003 2.502-172.523 312.542-172.523-312.542-2.502-2.502h-120.015l-2.502 2.502 295.040 522.57z" />
<glyph unicode="&#xe623;" glyph-name="farja" horiz-adv-x="1357" d="M1075.274 34.704c-24.983 9.369-46.839 18.734-71.819 18.734s-46.839-9.369-71.819-18.734c-24.983-9.369-56.206-21.859-90.555-21.859s-65.575 12.49-90.555 21.859c-24.983 9.369-46.839 18.734-71.819 18.734s-46.839-9.369-71.819-18.734c-24.983-9.369-56.206-21.859-90.555-21.859s-65.575 12.49-90.555 21.859c-24.983 9.369-46.839 18.734-71.819 18.734s-46.839-9.369-71.819-18.734c-24.983-9.369-56.206-21.859-90.555-21.859-15.613 0-31.226 0-46.839 6.243l-9.369 3.126v-65.575h6.243c18.734-6.243 34.347-9.369 49.959-9.369 24.983 0 49.959 9.369 71.819 18.734 24.983 9.369 56.206 21.859 90.555 21.859s65.575-12.49 90.555-21.859c24.983-9.369 46.839-18.734 71.819-18.734s49.959 9.369 71.819 18.734c24.983 9.369 56.206 21.859 90.555 21.859s65.575-12.49 90.555-21.859c24.983-9.369 46.839-18.734 71.819-18.734s49.959 9.369 71.819 18.734c24.983 9.369 56.206 21.859 90.555 21.859s65.575-12.49 90.555-21.859c24.983-9.369 46.839-18.734 71.819-18.734s46.839 9.369 71.819 18.734v0 68.698c-21.859-6.243-46.839-15.613-71.819-15.613-37.471-9.369-65.575 3.126-90.555 15.613zM1165.827 200.203c-34.347 0-65.575 12.49-90.555 21.859s-46.839 15.613-71.819 15.613c-3.126 0-6.243 0-9.369 0 34.347 153.009 106.17 281.033 106.17 281.033l-103.047 31.226v265.421h-96.8v46.839h-87.431v78.062h-249.805v-78.062h-90.555v-43.717h-93.676v-265.421l-103.047-31.226c0 0 71.819-131.151 106.17-284.155-6.243 0-15.613 3.126-21.859 3.126-24.983 0-46.839-9.369-71.819-18.734s-56.206-21.859-90.555-21.859c-15.613 0-31.226 0-46.839 6.243h-12.49v-68.698h6.243c18.734-6.243 34.347-9.369 49.959-9.369 24.983 0 46.839 9.369 71.819 18.734s56.206 21.859 90.555 21.859c34.347 0 65.575-12.49 90.555-21.859s46.839-18.734 71.819-18.734 46.839 9.369 71.819 18.734c24.983 9.369 56.206 21.859 90.555 21.859s65.575-12.49 90.555-21.859c24.983-9.369 46.839-18.734 71.819-18.734s46.839 9.369 71.819 18.734c24.983 9.369 56.206 21.859 90.555 21.859s65.575-12.49 90.555-21.859c24.983-9.369 46.839-18.734 71.819-18.734s46.839 9.369 71.819 18.734v0 68.698c-21.859-9.369-46.839-15.613-74.945-15.613zM469.489 712.312l68.698 21.859h287.278l68.698-21.859v-131.151l-215.459 65.575-209.214-65.575v131.151zM516.33 197.085c-6.243 0-12.49 0-18.734 0h37.471c-6.243 0-9.369 0-18.734 0zM841.079 197.085c-6.243 0-12.49 0-18.734 0h37.471c-6.243 0-12.49 0-18.734 0z" />
<glyph unicode="&#xe624;" glyph-name="fjallstation" horiz-adv-x="1357" d="M165.324 932.827v-987.573h987.573v987.573h-987.573zM1029.817 68.335h-738.483v738.483h735.552l2.933-738.483zM505.261 595.819h310.633v-310.633h-310.633v310.633z" />
<glyph unicode="&#xe625;" glyph-name="fyr" horiz-adv-x="1448" d="M913.285 375.889l285.135 210.496h-378.309l-109.274 338.308-109.274-340.991h-380.99l303.673-229.277-114.641-357.090 298.304 221.229 298.304-223.669-114.641 362.211 21.708 18.782zM867.919 415.891l-2.683-21.219-5.365-21.219-5.365-23.902-10.732-18.537-13.415-18.537-16.097-16.097-16.097-13.415-21.219-10.732-18.537-8.050-21.219-5.365-23.902-2.683h-5.365l-23.902 2.683-21.219 5.365-18.537 5.365-18.537 10.732-37.075 26.828-13.415 18.537-10.732 18.537-8.050 21.219-5.365 21.219-2.683 23.902v5.365l2.683 23.902 5.365 21.219 8.050 18.537 10.732 18.537 13.415 18.537 16.097 16.097 16.097 13.415 18.537 10.732 21.219 8.050 21.219 5.365 23.902 2.683h5.365l21.219-2.683 21.219-5.365 21.219-8.050 18.537-10.732 18.537-13.415 16.097-16.097 13.415-16.097 13.415-18.537 8.050-21.219 5.365-21.219 2.683-23.902v-8.050h-2.683v8.293z" />
<glyph unicode="&#xe626;" glyph-name="gasthamn" horiz-adv-x="1357" d="M949.619 297.35l58.61-58.61-43.957-35.166-32.234-20.514-70.334-35.166-35.166-11.722-38.098-11.722-35.166-5.859-32.234-2.933v240.3l2.933 2.933 17.582 8.792 11.722 8.792 11.722 17.582 8.792 11.722 11.722 35.166v32.234l-5.859 17.582-5.859 14.652-8.792 14.652-5.859 5.859h99.638v90.845h-137.732v5.859l8.792 5.859 20.514 5.859 20.514 11.722 14.652 17.582 14.652 14.652 23.446 35.166 8.792 20.514 2.933 23.446v32.234l-2.933 23.446-5.859 20.514-11.722 20.514-23.446 35.166-17.582 14.652-14.652 11.722-20.514 8.792-41.028 11.722h-58.61l-41.028-17.582-17.582-11.722-17.582-14.652-11.722-14.652-14.652-17.582-8.792-17.582-8.792-23.446-5.859-41.028 2.933-14.652 2.933-23.446 5.859-17.582 8.792-20.514 23.446-35.166 17.582-14.652 17.582-11.722 20.514-11.722 17.582-5.859v-5.859h-137.732v-90.845h96.707l-2.933-5.859-11.722-14.652-5.859-17.582-2.933-17.582v-32.234l5.859-14.652 5.859-17.582 8.792-14.652 11.722-14.652 14.652-11.722 14.652-8.792h2.933v-240.3l-17.582 2.933-38.098 5.859-38.098 8.792-35.166 11.722-38.098 14.652-35.166 17.582-32.234 20.514-29.305 20.514-23.446 20.514 58.61 58.61h-184.62v-184.62l61.541 61.541 14.652-14.652 64.471-46.886 38.098-20.514 38.098-17.582 76.194-29.305 82.052-17.582 49.818-5.859 32.234-46.886 35.166 46.886 26.371 2.933 41.028 5.859 43.957 8.792 38.098 11.722 76.194 29.305 38.098 20.514 70.334 46.886 29.305 26.371 61.541-61.541v184.62z" />
<glyph unicode="&#xe627;" glyph-name="lagenhet" horiz-adv-x="1357" d="M718.082 950.454l-302.994-238.526v-763.929h580.2l3.227 760.706-280.428 241.75zM911.483 35.030h-164.39v83.808h-83.808v-83.808h-161.166v634.997l215.963 170.837 196.622-170.837-3.227-634.997zM743.872 502.41h116.039v-83.808h-116.039v83.808zM743.872 286.447h116.039v-83.808h-116.039v83.808zM556.915 392.819h116.039v-83.808h-116.039v83.808zM556.915 608.78h116.039v-83.808h-116.039v83.808z" />
<glyph unicode="&#xe628;" glyph-name="rikrose" horiz-adv-x="1357" d="M1168.414 478.624l-5.327 53.285-13.32 50.623-18.65 50.623-21.315 47.956-29.306 45.292-31.971 42.627-37.301 42.627-42.627 34.637-45.292 29.306-47.956 26.643-47.956 18.65-50.623 13.32-53.285 7.993-53.285 2.666h-37.301l-53.285-5.327-50.623-13.32-50.623-18.65-47.956-21.315-47.956-26.643-42.627-31.971-39.963-37.301-34.637-42.627-29.306-45.292-26.643-47.956-18.65-47.956-13.32-50.623-7.993-53.285-2.666-53.285v-2.666l2.666-31.971 5.327-53.285 13.32-50.623 18.65-50.623 21.315-47.956 29.306-45.292 31.971-42.627 37.301-39.963 42.627-34.637 45.292-29.306 47.956-26.643 47.956-18.65 50.623-13.32 53.285-7.993 53.285-2.666h2.666l31.971 2.666 53.285 5.327 50.623 13.32 50.623 18.65 47.956 21.315 45.292 29.306 42.627 31.971 39.963 37.301 34.637 42.627 29.306 45.292 26.643 47.956 18.65 47.956 15.985 50.623 7.993 53.285 2.666 53.285v26.643zM987.246 443.992l-2.666-42.627-7.993-42.627-13.32-39.963-21.315-37.301-23.976-34.637-29.306-29.306-31.971-26.643-37.301-21.315-39.963-15.985-39.963-13.32-42.627-5.327-26.643-2.666h-2.666l-42.627 2.666-42.627 7.993-39.963 10.657-37.301 18.65-34.637 26.643-31.971 29.306-26.643 31.971-21.315 37.301-15.985 37.301-13.32 39.963-5.327 42.627-2.666 26.643v2.666l2.666 42.627 7.993 42.627 13.32 39.963 18.65 37.301 23.976 34.637 29.306 31.971 31.971 26.643 37.301 21.315 39.963 15.985 39.963 13.32 42.627 5.327 26.643 2.666h2.666l42.627-2.666 42.627-7.993 39.963-13.32 37.301-18.65 34.637-23.976 31.971-29.306 26.643-31.971 21.315-37.301 15.985-39.963 13.32-39.963 5.327-42.627 5.327-29.306zM859.36 513.26l-15.985 39.963-26.643 29.306-29.306 29.306-37.301 18.65-39.963 13.32-39.963 2.666h-29.306l-39.963-7.993-37.301-18.65-31.971-26.643-29.306-29.306-18.65-34.637-10.657-39.963-5.327-42.627v-26.643l10.657-39.963 15.985-39.963 26.643-31.971 29.306-26.643 34.637-18.65 42.627-15.985 39.963-2.666h2.666l23.976 2.666 42.627 7.993 37.301 18.65 31.971 23.976 26.643 29.306 21.315 37.301 13.32 42.627 2.666 37.301v2.666l-2.666 26.643z" />
<glyph unicode="&#xe629;" glyph-name="ruin" horiz-adv-x="1357" d="M690.438 942.385v-451.264l-567.304 3.227v-515.734h1076.593v963.773h-509.285zM1057.897 123.654h-789.711v225.636l567.304-3.227v451.264h222.409v-673.675z" />
<glyph unicode="&#xe62a;" glyph-name="stuga" horiz-adv-x="1357" d="M669.657 615.064l17.033-5.676 2.841-5.676 278.211-286.73 2.841-352.025-610.364-2.841 2.841 343.508 281.053 298.084 11.356 11.356zM1109.686 475.957l5.676-5.676-76.65-88.006-17.033-14.194-343.508 346.346-5.676 2.841-17.033-5.676-5.676-5.676-346.346-332.151-5.676-2.841-85.166 82.328 8.517 34.067 445.71 428.675h11.356z" />
<glyph unicode="&#xe62b;" glyph-name="book" d="M480 132v628c0 0-86.016 72-208 72s-208-64-208-64v-636c0 0 86.016 62.016 208 62.016s208-62.016 208-62.016zM928 132v628c0 0-86.016 72-208 72s-208-64-208-64v-636c0 0 86.016 62.016 208 62.016s208-62.016 208-62.016zM992 704h-32v-608h-384v-32h-160v32h-384v608h-32v-640h384v-32h225.984l-1.984 32h384v640z" />
<glyph unicode="&#xe62c;" glyph-name="stugby" horiz-adv-x="1357" d="M835.586 227.368v-243.564l412.185 3.126v240.438l-202.97 193.6zM1344.569 314.801l-299.772 299.772-137.396-128.024-418.427 418.427-471.512-443.412 103.047-103.047 6.243 3.126 362.221 343.485 318.504-312.261-40.596-37.471-274.79 265.421-309.139-287.278v-355.971l605.783 3.126v265.421l6.243-3.126 3.126 3.126 246.688 234.195 240.438-240.438 62.453 71.819z" />
<glyph unicode="&#xe62d;" glyph-name="utsikt" horiz-adv-x="1357" d="M726.951 923.262l-39.746-352.025h-53.942l-45.421 352.025zM633.267 315.736h53.942l42.583-334.99h-136.265zM374.925 838.093l221.436-283.892-31.227-36.907-292.409 212.918zM193.234 514.462l340.668-34.067v-59.618l-343.508-39.746zM550.938 375.352l34.067-31.227-212.918-278.211-96.524 99.36zM772.371 378.191l286.73-210.079-96.524-102.2-221.436 272.537zM1138.593 531.491v-136.265l-346.346 34.067-2.841 51.1zM954.063 846.612l99.36-96.524-278.211-224.276-39.746 34.067zM758.179 446.326c0-51.74-41.943-93.685-93.685-93.685s-93.685 41.943-93.685 93.685c0 51.74 41.943 93.685 93.685 93.685s93.685-41.943 93.685-93.685z" />
<glyph unicode="&#xe62e;" glyph-name="snow" d="M76.546 194.537c0 17.717 0 35.607 0 53.496 1.204 0.516 2.236 0.86 3.44 1.376 38.015 20.814 76.030 41.455 114.045 62.269 1.032 0.516 2.064 1.204 3.268 2.236-1.548 0.86-2.752 1.548-3.956 2.236-22.706 11.353-45.24 22.706-67.946 34.059-2.408 1.204-3.44 2.408-3.44 5.332 0.172 13.761 0.172 27.522 0 41.455 0 2.58 1.032 3.956 3.096 5.16 12.041 6.537 23.91 12.901 35.951 19.782 3.096 1.892 5.332 1.548 8.257-0.344 33.715-19.954 67.43-39.735 101.144-59.689 2.064-1.204 3.784-2.064 6.365-0.516 23.394 13.589 46.788 27.006 70.182 40.595 0.688 0.344 1.204 0.86 2.58 1.892-26.49 15.309-52.464 30.102-78.954 45.412 25.286 15.653 49.884 30.963 74.826 46.616-1.892 1.032-2.924 1.72-3.956 2.408-22.534 13.073-45.068 26.146-67.602 39.219-2.924 1.548-4.816 1.548-7.569-0.172-33.715-19.954-67.602-39.735-101.488-59.689-2.58-1.548-4.644-1.548-7.225-0.172-11.181 5.676-22.362 11.353-33.715 16.685-2.58 1.204-3.44 2.924-3.44 5.848 0.172 13.245 0.172 26.662 0 40.079 0 3.096 1.032 4.816 3.612 6.193 21.846 12.213 43.864 24.426 65.537 36.811 1.376 0.688 2.58 1.548 4.128 2.408-1.204 0.688-2.064 1.376-2.924 1.892-36.983 20.126-74.138 40.251-111.293 60.377-1.032 0.516-2.064 0.688-3.096 1.032 0 17.717 0 35.607 0 53.496 13.933 7.053 27.866 14.105 41.627 21.502 2.58 1.376 4.644 1.204 7.225-0.344 35.779-20.814 71.558-41.455 107.337-62.097 1.376-0.688 2.752-1.548 4.816-2.58 0 2.236 0 3.784 0 5.332 0 25.286 0.172 50.4-0.172 75.686 0 3.096 1.032 4.816 3.44 6.537 9.461 6.193 18.922 12.385 28.038 18.922 2.408 1.72 4.3 1.892 7.053 0.344 11.697-6.881 23.394-13.761 35.091-20.298 3.268-1.892 4.128-3.956 4.128-7.569-0.172-39.391-0.172-78.782-0.344-118.174 0-2.924 0.688-4.816 3.44-6.365 23.566-13.245 47.132-26.834 70.87-40.423 1.032-0.516 2.064-1.032 3.612-1.72 0 30.102 0 59.517 0 89.619 27.178-14.621 53.84-28.898 81.363-43.692 0 2.408 0 3.784 0 5.332 0 25.802-0.172 51.432 0.172 77.234 0 3.44-1.204 5.16-4.128 6.709-34.231 19.266-68.29 38.875-102.348 58.141-2.408 1.376-3.44 2.924-3.44 5.848 0.172 12.901 0.172 25.802 0 38.875 0 2.58 0.688 3.956 3.096 5.16 10.493 6.020 20.986 12.041 31.479 18.233 2.58 1.548 4.3 1.376 6.881-0.172 22.018-12.385 44.208-24.942 66.225-37.327 1.204-0.688 2.58-1.376 4.3-2.236 0 2.408 0 4.128 0 5.676 0 40.595 0 81.363-0.172 121.958 0 3.268 1.032 4.988 3.612 6.709 12.901 8.257 25.63 16.857 38.359 25.286 0.344 0 0.516 0 0.86 0 12.901-8.429 25.802-17.029 38.875-25.458 2.58-1.72 3.612-3.44 3.612-6.709-0.172-40.595-0.172-81.363-0.172-121.958 0-1.548 0-3.268 0-5.676 2.064 1.032 3.268 1.72 4.644 2.408 22.878 12.729 45.928 25.286 68.634 38.015 2.58 1.376 4.3 1.376 6.709-0.344 10.837-7.225 21.502-14.449 32.339-21.502 2.064-1.376 2.924-2.924 2.924-5.504-0.172-11.353-0.172-22.534 0-33.887 0.172-3.268-1.032-4.988-3.784-6.537-35.435-19.954-70.87-40.079-106.133-60.033-2.58-1.548-3.784-3.096-3.784-6.193 0.172-26.146 0.172-52.12 0.172-78.094 0-1.376 0.172-2.58 0.344-4.644 25.802 15.825 51.26 31.135 77.406 47.132 0-31.823 0-62.957 0-94.436 1.892 1.032 3.096 1.376 4.3 2.064 23.91 12.901 47.648 26.146 71.558 38.875 3.096 1.72 4.3 3.44 4.3 7.053-0.172 42.487-0.172 84.975-0.172 127.462 0 3.096 0.688 4.816 3.784 6.020 10.665 4.816 21.158 9.977 31.823 14.621 1.72 0.688 4.3 0.86 6.020 0.172 11.353-4.816 22.706-9.977 34.059-14.793 2.752-1.204 3.44-2.752 3.44-5.676-0.172-26.146-0.172-52.12-0.172-78.094 0-1.376 0.172-2.924 0.172-4.644 1.548 0.688 2.752 1.376 3.784 1.892 36.811 19.954 73.622 39.735 110.261 59.689 3.44 1.892 5.848 2.064 9.289-0.172 11.869-7.569 23.91-14.621 36.123-21.846 0-17.029 0-34.059 0-51.088-0.688-0.344-1.204-0.516-1.892-0.86-36.639-20.814-73.45-41.627-110.089-62.613-1.032-0.516-1.72-1.204-2.924-2.064 1.72-1.032 3.096-1.72 4.3-2.408 21.502-12.041 43.004-24.254 64.505-36.123 2.408-1.376 3.612-2.752 3.612-5.848-0.172-13.245-0.172-26.49 0-39.735 0-2.752-0.86-4.3-3.268-5.504-10.321-5.504-20.642-11.181-30.791-17.029-2.752-1.548-4.816-1.548-7.569 0.172-34.919 20.814-69.838 41.283-104.585 61.925-2.236 1.376-3.956 1.72-6.365 0.172-23.738-15.309-47.476-30.274-71.214-45.412-0.86-0.516-1.548-1.204-2.752-2.236 24.77-15.481 49.368-30.791 74.31-46.272-25.802-14.793-51.088-29.242-76.718-44.208 1.892-1.032 3.096-1.892 4.3-2.408 23.738-12.385 47.648-24.77 71.386-37.327 2.58-1.376 4.644-1.376 7.225 0.172 34.919 19.61 69.838 39.047 104.585 58.485 2.408 1.376 4.3 1.548 6.709-0.344 9.977-7.225 19.954-14.277 29.93-21.158 2.064-1.376 2.924-3.096 2.752-5.504-0.172-12.557-0.172-25.114 0-37.671 0-2.924-1.032-4.472-3.44-5.848-20.814-11.525-41.627-23.394-62.269-34.919-1.204-0.688-2.408-1.548-4.128-2.408 1.72-1.032 2.924-1.892 4.128-2.58 34.575-20.642 69.15-41.111 103.897-61.581 2.58-1.548 3.44-3.268 3.44-6.365-0.172-14.621-0.172-29.242 0-43.864 0-2.924-0.688-4.472-3.44-5.676-13.589-6.020-27.006-12.041-40.251-18.406-2.58-1.204-4.472-1.032-6.881 0.344-33.543 19.266-67.258 38.359-100.972 57.453-1.548 0.86-3.096 1.72-5.332 2.924 0-2.236 0-3.784 0-5.16 0-24.598-0.172-49.024 0.172-73.622 0-2.752-0.86-4.128-3.268-5.504-11.181-6.020-22.19-12.213-33.199-18.578-2.236-1.204-3.784-1.376-6.020 0-10.493 6.193-20.986 12.213-31.651 18.061-2.924 1.548-3.956 3.44-3.956 6.709 0.172 38.875 0 77.75 0.172 116.626 0 3.268-1.032 4.988-3.784 6.537-24.426 13.761-48.852 27.866-73.45 41.627-1.204 0.688-2.236 1.204-4.3 2.236 0-29.242 0-57.797 0-86.867-26.146 15.825-51.432 31.307-77.406 47.132 0-2.408 0-3.784 0-5.16 0-25.802 0.172-51.604-0.172-77.234 0-3.268 1.032-5.16 3.956-6.881 34.231-19.266 68.29-38.703 102.52-58.141 2.408-1.376 3.44-2.924 3.44-5.848-0.172-13.933-0.172-27.866 0-41.799 0-2.752-0.86-4.128-3.268-5.504-10.321-4.988-20.814-10.149-30.963-15.481-2.752-1.376-4.644-1.204-7.225 0.344-21.846 12.385-43.52 24.77-65.537 36.983-1.204 0.688-2.58 1.376-4.472 2.408 0-2.408 0-4.128 0-5.676 0-40.595 0-81.363 0.172-121.958 0-3.268-1.032-5.16-3.784-7.053-12.901-8.257-25.63-16.685-38.531-24.942-0.344 0-0.516 0-0.86 0-12.729 8.257-25.286 16.685-38.015 24.942-2.752 1.892-3.956 3.612-3.956 6.881 0.172 40.767 0.172 81.707 0.172 122.474 0 1.548 0 3.268 0 5.504-1.892-1.032-3.268-1.548-4.644-2.408-22.018-12.385-44.208-24.77-66.225-37.327-2.408-1.376-4.128-1.376-6.537 0-10.321 6.020-20.814 12.041-31.135 17.889-2.408 1.376-3.44 2.924-3.44 5.848 0.172 12.901 0.172 25.63 0 38.531-0.172 3.268 1.032 4.988 3.784 6.537 34.231 19.266 68.29 38.703 102.52 58.141 2.58 1.548 3.784 3.096 3.612 6.193-0.172 26.146-0.172 52.12-0.172 78.094 0 1.376-0.172 2.58-0.344 4.644-26.662-17.201-52.636-33.715-79.643-51.088 0 31.307 0 61.409 0 92.2-2.064-1.204-3.44-1.892-4.988-2.752-22.362-12.901-44.552-25.802-67.086-38.531-2.924-1.548-3.956-3.268-3.956-6.709 0.172-38.703 0-77.406 0.172-116.282 0-3.268-1.032-5.16-3.956-6.881-11.697-6.881-23.050-14.105-34.403-21.33-2.58-1.548-4.3-1.376-6.709 0.172-9.461 6.537-18.922 12.729-28.554 18.922-2.58 1.548-3.44 3.44-3.268 6.537 0.172 24.77 0.172 49.54 0.172 74.482 0 1.376 0 2.924 0 4.988-2.064-1.032-3.44-1.72-4.644-2.408-35.435-20.298-70.87-40.079-106.305-60.205-3.44-1.892-6.020-2.064-9.633-0.516-14.621 6.709-29.414 12.729-44.208 18.922zM520.171 510.699c-11.181 0-22.19 0.172-33.371-0.172-1.72 0-4.128-1.204-4.988-2.58-11.697-18.922-23.050-38.015-34.747-57.109-1.204-2.064-1.032-3.268 0.172-5.16 12.041-17.717 24.082-35.435 36.123-53.152 1.032-1.376 3.268-2.58 4.988-2.58 22.534-0.172 44.896-0.172 67.258-0.172 2.58 0 3.956 0.86 5.16 3.096 10.149 17.545 20.298 35.263 30.619 52.808 1.376 2.236 1.204 3.956-0.172 6.020-10.837 18.578-21.674 37.327-32.339 56.077-1.376 2.408-2.924 3.096-5.676 3.096-10.665-0.172-21.846-0.172-33.027-0.172z" />
<glyph unicode="&#xe62f;" glyph-name="skidown" d="M822.571-38.714c-8.429 3.956-17.029 8.085-25.458 11.869-49.884 22.534-99.94 44.896-149.824 67.43-59.861 27.006-119.722 53.84-179.583 81.019-57.797 25.974-115.593 52.12-173.218 78.266-59.861 27.006-119.722 54.012-179.583 81.019-21.674 9.805-43.348 19.61-65.193 29.242-3.612 1.548-4.3 3.096-2.58 6.709 4.128 8.429 2.236 7.741 10.493 4.128 65.193-27.694 130.215-55.389 195.408-83.083 37.499-15.825 74.826-31.651 112.325-47.82 4.128-1.72 6.365-1.204 9.461 2.064 53.324 58.313 106.821 116.282 160.145 174.422 1.032 1.204 2.064 2.408 3.44 3.956-1.032 1.204-2.064 2.408-2.924 3.44-38.531 41.799-77.234 83.599-115.593 125.398-2.408 2.58-4.128 5.848-5.504 9.117-6.020 13.933-9.805 28.382-6.365 43.692 2.236 9.805 7.397 17.545 14.793 24.426 11.181 10.321 22.19 20.986 34.059 32.339-70.354 4.128-139.675 8.085-209.513 12.041-0.86-16.169-1.72-31.823-2.58-48.164-4.472 0.172-8.945 0.344-13.589 0.516 0.86 16.169 1.892 31.823 2.924 48.336-28.21 1.548-56.249 3.268-84.287 4.988 0 0.344 0 0.516 0 0.86 1.376 0.344 2.752 0.516 4.128 0.688 20.47 3.096 40.939 6.020 61.409 8.773 5.332 0.688 10.837 0.516 16.169 0.516 2.752-0.172 3.612 0.688 3.956 3.612 0.516 11.697 1.376 23.222 2.236 35.435 4.3-0.172 8.257-0.344 12.729-0.688-0.688-13.073-1.376-25.802-2.064-38.703 11.869-0.344 23.222-0.688 34.747-1.032 63.301-1.72 126.774-3.44 190.076-5.332 4.472-0.172 7.741 0.86 10.837 4.128 63.473 61.237 126.946 122.474 190.42 183.711 5.848 5.504 5.848 5.676 12.557 1.548 19.61-11.869 37.327-26.318 51.776-44.208 15.653-19.266 24.254-40.767 23.394-66.225-0.688-20.642-0.172-41.283-0.344-62.097 0-5.676 0-11.353 0-17.545 5.16 0 10.149-0.172 15.137-0.172 52.292 0.172 104.585 0.344 156.877 0.516 9.289 0 16.341-6.193 15.997-15.825-0.172-5.16-1.72-10.837-4.3-15.481-8.085-14.449-20.814-24.77-33.887-34.575-1.204-0.86-3.268-0.86-4.988-0.86-52.12-0.516-104.241-1.032-156.533-1.548-6.193-0.172-12.729-0.86-18.578 0.344-14.105 2.752-25.802 10.665-36.123 20.126-3.268 3.096-5.16 2.752-8.429 0.344-23.394-17.545-46.96-34.747-70.526-52.12-1.376-1.032-2.752-2.064-4.472-3.44 0.86-1.376 1.72-2.58 2.58-3.784 26.146-35.607 52.464-71.214 78.438-106.821 1.892-2.58 3.44-5.676 4.3-8.773 4.128-14.793 4.988-29.758 0-44.552-2.408-7.397-6.709-13.417-11.869-18.922-49.024-52.464-97.876-104.929-146.9-157.221-14.621-15.653-29.242-31.135-43.864-46.788-0.86-1.032-1.892-2.064-3.096-3.44 1.376-0.688 2.408-1.376 3.44-1.72 73.794-31.479 147.588-62.785 221.382-94.264 37.499-15.997 75.686-30.791 112.497-48.164 30.274-14.277 59.345-12.041 88.759 1.032 8.601 3.956 16.685 8.429 24.942 13.073 6.881 3.956 13.933 4.128 20.986 1.548 8.773-3.268 10.837-13.589 4.472-22.19-1.376-1.72-2.924-3.612-4.644-4.988-19.782-13.933-40.251-26.49-63.989-32.855-14.621-3.956-29.070-4.816-44.036-1.892-11.009 4.988-21.846 9.805-32.855 14.621zM743.273 889.13c19.61 44.38 71.558 64.505 115.938 44.896 44.552-19.61 64.677-71.902 44.724-116.798-19.61-44.036-71.73-63.989-115.765-44.552-44.552 19.61-64.677 71.902-44.896 116.454z" />
<glyph unicode="&#xe630;" glyph-name="checked" d="M848 96h-96c-8.832 0-16 7.168-16 16s7.168 16 16 16h80v80c0 8.832 7.168 16 16 16 8.8 0 16-7.168 16-16v-96c0-8.832-7.2-16-16-16zM848 288c-8.832 0-16 7.168-16 16v96c0 8.832 7.168 16 16 16 8.8 0 16-7.168 16-16v-96c0-8.832-7.2-16-16-16zM848 480c-8.832 0-16 7.168-16 16v96c0 8.832 7.168 16 16 16 8.8 0 16-7.168 16-16v-96c0-8.832-7.2-16-16-16zM848 672c-8.832 0-16 7.168-16 16v80h-80c-8.832 0-16 7.168-16 16s7.168 16 16 16h96c8.8 0 16-7.168 16-16v-96c0-8.832-7.2-16-16-16zM469.312 286.304c-5.888-5.92-15.456-5.92-21.376 0l-32.064 32.064c-0.064 0.096-0.032 0.224-0.096 0.288l-102.016 102.784c-5.92 5.888-5.92 15.456 0 21.376l32.064 32.096c5.92 5.92 15.488 5.92 21.408 0l91.52-92.192 192.448 192.416c5.888 5.92 15.456 5.92 21.376 0l32.064-32.096c5.952-5.92 5.952-15.488 0-21.408l-235.328-235.328zM656 768h-96c-8.832 0-16 7.168-16 16s7.168 16 16 16h96c8.8 0 16-7.168 16-16s-7.2-16-16-16zM464 768h-96c-8.832 0-16 7.168-16 16s7.168 16 16 16h96c8.8 0 16-7.168 16-16s-7.2-16-16-16zM272 96h-96c-8.832 0-16 7.168-16 16v96c0 8.832 7.168 16 16 16s16-7.168 16-16v-80h80c8.832 0 16-7.168 16-16s-7.168-16-16-16zM272 768h-80v-80c0-8.832-7.168-16-16-16s-16 7.168-16 16v96c0 8.832 7.168 16 16 16h96c8.832 0 16-7.168 16-16s-7.168-16-16-16zM176 608c8.832 0 16-7.168 16-16v-96c0-8.832-7.168-16-16-16s-16 7.168-16 16v96c0 8.832 7.168 16 16 16zM176 416c8.832 0 16-7.168 16-16v-96c0-8.832-7.168-16-16-16s-16 7.168-16 16v96c0 8.832 7.168 16 16 16zM368 128h96c8.8 0 16-7.168 16-16s-7.2-16-16-16h-96c-8.832 0-16 7.168-16 16s7.168 16 16 16zM560 128h96c8.8 0 16-7.168 16-16s-7.2-16-16-16h-96c-8.832 0-16 7.168-16 16s7.168 16 16 16z" />
<glyph unicode="&#xe631;" glyph-name="error" d="M848 96h-96c-8.832 0-16 7.168-16 16s7.168 16 16 16h80v80c0 8.832 7.168 16 16 16 8.8 0 16-7.168 16-16v-96c0-8.832-7.2-16-16-16zM848 288c-8.832 0-16 7.168-16 16v96c0 8.832 7.168 16 16 16 8.8 0 16-7.168 16-16v-96c0-8.832-7.2-16-16-16zM848 480c-8.832 0-16 7.168-16 16v96c0 8.832 7.168 16 16 16 8.8 0 16-7.168 16-16v-96c0-8.832-7.2-16-16-16zM848 672c-8.832 0-16 7.168-16 16v80h-80c-8.832 0-16 7.168-16 16s7.168 16 16 16h96c8.8 0 16-7.168 16-16v-96c0-8.832-7.2-16-16-16zM656 96h-96c-8.832 0-16 7.168-16 16s7.168 16 16 16h96c8.8 0 16-7.168 16-16s-7.2-16-16-16zM656 768h-96c-8.832 0-16 7.168-16 16s7.168 16 16 16h96c8.8 0 16-7.168 16-16s-7.2-16-16-16zM464 768h-96c-8.832 0-16 7.168-16 16s7.168 16 16 16h96c8.8 0 16-7.168 16-16s-7.2-16-16-16zM272 96h-96c-8.832 0-16 7.168-16 16v96c0 8.832 7.168 16 16 16s16-7.168 16-16v-80h80c8.832 0 16-7.168 16-16s-7.168-16-16-16zM272 768h-80v-80c0-8.832-7.168-16-16-16s-16 7.168-16 16v96c0 8.832 7.168 16 16 16h96c8.832 0 16-7.168 16-16s-7.168-16-16-16zM176 608c8.832 0 16-7.168 16-16v-96c0-8.832-7.168-16-16-16s-16 7.168-16 16v96c0 8.832 7.168 16 16 16zM176 416c8.832 0 16-7.168 16-16v-96c0-8.832-7.168-16-16-16s-16 7.168-16 16v96c0 8.832 7.168 16 16 16zM663.552 328.864l-32.448-32.448c-5.952-5.984-15.616-5.984-21.6 0l-91.84 91.84-91.84-91.84c-5.984-5.984-15.616-5.984-21.6 0l-32.416 32.448c-5.984 5.984-5.984 15.616 0 21.6l91.872 91.84-91.872 91.84c-5.984 5.952-5.984 15.616 0 21.6l32.416 32.416c5.984 5.984 15.616 5.984 21.6 0l91.84-91.84 91.84 91.84c5.984 5.984 15.648 5.984 21.6 0l32.448-32.416c5.952-5.984 5.952-15.648 0-21.6l-91.872-91.84 91.872-91.84c5.952-5.952 5.952-15.616 0-21.6zM368 128h96c8.8 0 16-7.168 16-16s-7.2-16-16-16h-96c-8.832 0-16 7.168-16 16s7.168 16 16 16z" />
<glyph unicode="&#xe632;" glyph-name="add" d="M848 96h-96c-8.832 0-16 7.168-16 16s7.168 16 16 16h80v80c0 8.832 7.168 16 16 16 8.8 0 16-7.168 16-16v-96c0-8.832-7.2-16-16-16zM848 288c-8.832 0-16 7.168-16 16v96c0 8.832 7.168 16 16 16 8.8 0 16-7.168 16-16v-96c0-8.832-7.2-16-16-16zM848 480c-8.832 0-16 7.168-16 16v96c0 8.832 7.168 16 16 16 8.8 0 16-7.168 16-16v-96c0-8.832-7.2-16-16-16zM848 672c-8.832 0-16 7.168-16 16v80h-80c-8.832 0-16 7.168-16 16s7.168 16 16 16h96c8.8 0 16-7.168 16-16v-96c0-8.832-7.2-16-16-16zM656 96h-96c-8.832 0-16 7.168-16 16s7.168 16 16 16h96c8.8 0 16-7.168 16-16s-7.2-16-16-16zM656 768h-96c-8.832 0-16 7.168-16 16s7.168 16 16 16h96c8.8 0 16-7.168 16-16s-7.2-16-16-16zM638.016 480c17.664 0 32-14.304 32-32 0-17.664-14.336-32-32-32h-96v-96c0-17.664-14.336-32-32-32-17.696 0-32 14.336-32 32v96h-96c-17.664 0-32 14.336-32 32 0 17.696 14.304 32 32 32h96v96c0 17.696 14.304 32 32 32 17.664 0 32-14.304 32-32v-96h96zM464 768h-96c-8.832 0-16 7.168-16 16s7.168 16 16 16h96c8.8 0 16-7.168 16-16s-7.2-16-16-16zM272 96h-96c-8.832 0-16 7.168-16 16v96c0 8.832 7.168 16 16 16s16-7.168 16-16v-80h80c8.832 0 16-7.168 16-16s-7.168-16-16-16zM272 768h-80v-80c0-8.832-7.168-16-16-16s-16 7.168-16 16v96c0 8.832 7.168 16 16 16h96c8.832 0 16-7.168 16-16s-7.168-16-16-16zM176 608c8.832 0 16-7.168 16-16v-96c0-8.832-7.168-16-16-16s-16 7.168-16 16v96c0 8.832 7.168 16 16 16zM176 416c8.832 0 16-7.168 16-16v-96c0-8.832-7.168-16-16-16s-16 7.168-16 16v96c0 8.832 7.168 16 16 16zM368 128h96c8.8 0 16-7.168 16-16s-7.2-16-16-16h-96c-8.832 0-16 7.168-16 16s7.168 16 16 16z" />
<glyph unicode="&#xe633;" glyph-name="minus" d="M272 800h-96c-8.832 0-16-7.168-16-16v-96c0-8.832 7.168-16 16-16s16 7.168 16 16v80h80c8.832 0 16 7.168 16 16s-7.168 16-16 16zM368 768h96c8.8 0 16 7.168 16 16s-7.2 16-16 16h-96c-8.832 0-16-7.168-16-16s7.168-16 16-16zM656 800h-96c-8.832 0-16-7.168-16-16s7.168-16 16-16h96c8.8 0 16 7.168 16 16s-7.2 16-16 16zM848 800h-96c-8.832 0-16-7.168-16-16s7.168-16 16-16h80v-80c0-8.832 7.168-16 16-16 8.8 0 16 7.168 16 16v96c0 8.832-7.2 16-16 16zM848 608c-8.832 0-16-7.168-16-16v-96c0-8.832 7.168-16 16-16 8.8 0 16 7.168 16 16v96c0 8.832-7.2 16-16 16zM848 416c-8.832 0-16-7.168-16-16v-96c0-8.832 7.168-16 16-16 8.8 0 16 7.168 16 16v96c0 8.832-7.2 16-16 16zM848 224c-8.832 0-16-7.168-16-16v-80h-80c-8.832 0-16-7.168-16-16s7.168-16 16-16h96c8.8 0 16 7.168 16 16v96c0 8.832-7.2 16-16 16zM656 128h-96c-8.832 0-16-7.168-16-16s7.168-16 16-16h96c8.8 0 16 7.168 16 16s-7.2 16-16 16zM464 128h-96c-8.832 0-16-7.168-16-16s7.168-16 16-16h96c8.8 0 16 7.168 16 16s-7.2 16-16 16zM272 128h-80v80c0 8.832-7.168 16-16 16s-16-7.168-16-16v-96c0-8.832 7.168-16 16-16h96c8.832 0 16 7.168 16 16s-7.168 16-16 16zM176 288c8.832 0 16 7.168 16 16v96c0 8.832-7.168 16-16 16s-16-7.168-16-16v-96c0-8.832 7.168-16 16-16zM176 480c8.832 0 16 7.168 16 16v96c0 8.832-7.168 16-16 16s-16-7.168-16-16v-96c0-8.832 7.168-16 16-16zM382.016 416h256c17.696 0 32 14.336 32 32 0 17.696-14.304 32-32 32h-256c-17.696 0-32-14.304-32-32 0-17.664 14.304-32 32-32z" />
<glyph unicode="&#xe634;" glyph-name="skiflat" d="M753.594 672.908c6.537-1.376 13.417-2.236 19.61-4.472 31.307-11.353 49.024-44.208 41.971-76.718s-36.983-54.356-70.526-51.604c-33.027 2.752-59.173 31.479-59.517 65.365-0.344 34.059 24.77 63.129 57.969 66.741 1.548 0.172 3.268 0.516 4.988 0.86 1.892-0.172 3.784-0.172 5.504-0.172zM13.073-55.743c0 7.569 0 14.449 0 21.846 196.612 0 393.052 0 590.352 0-1.376 2.064-2.408 3.44-3.268 4.816-6.365 9.289-7.741 19.438-4.3 30.274 13.761 44.896 27.522 89.963 41.455 134.859 1.032 3.44-0.172 4.988-2.408 6.881-50.228 43.692-100.284 87.555-150.512 131.247-32.167 28.038-35.779 72.418-8.257 104.929 35.263 41.627 70.87 83.083 106.133 124.538 0.688 0.86 1.548 1.892 2.752 3.44-20.47 7.053-40.595 13.933-61.065 20.986-0.86-2.408-1.892-4.472-2.58-6.537-12.557-32.339-25.114-64.849-37.671-97.188-8.257-21.33-29.758-28.554-49.368-16.857-1.376 0.86-4.128 0.688-5.848 0.172-64.505-21.33-128.839-43.004-193.344-64.505-70.354-23.566-140.88-47.132-211.233-70.526-1.204-0.344-2.58-0.688-4.644-1.376-1.548 4.644-3.096 9.117-4.816 14.277 136.063 45.412 271.954 90.823 408.361 136.407-5.676 12.729-0.516 24.082 3.784 35.607 14.621 37.499 29.414 74.998 44.036 112.497 1.376 3.44 2.924 6.709 4.644 9.977 8.945 17.717 26.146 25.114 45.24 19.61 48.68-14.449 97.188-29.070 145.868-43.176 9.805-2.752 17.889-6.709 25.286-14.277 6.709-6.881 15.997-11.009 24.082-16.685 2.236-1.548 4.644-3.44 6.020-5.676 17.545-30.619 34.919-61.409 52.464-92.2 0.172-0.344 0.516-0.688 1.032-1.376 1.548 1.376 2.924 2.752 4.3 4.128 23.738 23.222 47.476 46.444 71.214 69.666 13.417 13.073 32.339 13.933 45.412 2.236 14.277-12.729 14.277-34.059 0.172-47.304-7.569-7.053-15.137-14.277-22.534-21.674-1.548-1.548-3.096-3.784-3.784-6.020-53.84-151.888-107.681-303.949-161.349-455.837-0.516-1.376-0.86-2.752-1.376-4.816 2.064 0 3.784 0 5.332 0 85.663 0 171.326 0 256.989 0 11.009 0 17.373 6.193 17.373 17.373 0 4.988 0 9.977 0 15.481 8.085 0 15.825 0 24.254 0 0.688-15.825 0-31.135-10.149-44.38-5.504-7.053-13.073-10.665-22.362-10.665-320.118 0-640.065 0-960.355 0-1.548-0.172-3.268-0.172-5.332-0.172zM698.549 428.476c-33.543-39.735-66.913-78.954-100.112-118.518 1.376-1.548 2.408-2.752 3.44-3.784 35.263-38.015 70.354-76.030 105.789-113.873 15.997-17.029 19.61-36.295 13.073-57.969-17.029-56.077-34.231-111.981-51.432-168.058 5.504 0 11.697 0 18.061 0 2.58 0 3.784 0.86 4.472 3.268 3.268 9.633 6.709 19.438 10.149 29.070 47.132 133.139 94.264 266.278 141.568 399.245 0.516 1.548 1.032 3.096 1.548 4.644-8.257-7.225-15.481-14.965-22.878-22.534-10.149-10.665-20.126-21.674-30.791-31.651-15.137-14.105-34.575-11.181-45.584 6.193-14.621 23.050-29.414 46.1-44.208 69.15-0.86 1.548-1.72 2.924-3.096 4.816zM439.496 302.046c0.516-0.516 0.86-0.688 1.032-0.86 6.365-19.954 19.266-35.435 35.263-48.508 10.493-8.601 20.642-17.889 30.963-26.834 2.236-1.892 3.096-3.44 1.204-6.365-25.114-43.004-50.056-86.179-74.998-129.183-0.86-1.72-2.408-3.096-3.956-4.472-42.487-35.951-85.147-71.73-127.806-107.509-17.201-14.449-41.799-12.385-56.077 4.644-14.105 16.857-12.041 42.487 4.816 56.765 36.639 31.135 73.278 62.441 109.745 93.748 2.408 2.064 4.644 4.988 5.848 7.913 23.91 52.12 47.648 104.241 71.386 156.361 1.032 1.204 1.72 2.58 2.58 4.3z" />
<glyph unicode="&#xe635;" glyph-name="tags" d="M831.808 443.392l-391.2 391.2-376.608-1.44 0.576-346.592 405.184-405.184c25.408-25.44 66.304-25.792 91.328-0.768l271.488 271.52c24.992 24.992 24.672 65.856-0.768 91.264zM226.592 609.536c-35.328 0-64 28.672-64 64s28.672 64 64 64c35.36 0 64-28.672 64-64s-28.64-64-64-64zM923.072 442.624l-391.2 391.2-47.072-0.16 392.64-390.624c25.44-25.44 25.76-66.272 0.736-91.296l-271.488-271.52c-6.624-6.624-14.432-11.328-22.688-14.432 23.072-8.864 49.952-4.32 68.32 14.016l271.552 271.52c24.992 25.024 24.64 65.888-0.8 91.296z" />
<glyph unicode="&#xe636;" glyph-name="scooter" d="M1015.743 43.337c-25.114-18.75-50.572-37.327-75.342-56.421-14.277-10.837-29.93-19.094-47.476-23.222-9.461-2.236-19.438-3.956-29.070-4.128-126.774-0.172-253.721-0.172-380.495-0.172-1.72 0-3.612 0-6.193 0 0.86 1.72 1.376 3.096 2.064 4.3 8.429 15.653 16.857 31.479 25.286 47.304 1.72 3.44 3.784 4.644 7.741 4.644 77.75-0.172 155.673 0 233.595 0 36.811 0 73.45 0.516 110.261-0.172 16.513-0.344 31.479 3.612 45.412 11.869 10.837 6.365 21.502 13.417 31.651 20.986 26.662 19.954 53.152 40.423 79.643 60.721 0.86 0.688 2.064 1.204 3.096 1.72-0.172-22.362-0.172-44.896-0.172-67.43zM2.064-39.402c0.688 1.032 1.72 2.064 2.236 3.268 8.601 16.169 17.201 32.167 25.802 48.508 1.376 2.58 2.924 3.44 5.848 3.44 118.174 0 236.519 0 354.693 0 1.204 0 2.408 0 4.3-0.172-0.516-1.376-1.032-2.58-1.548-3.612-8.773-16.341-17.545-32.683-26.146-49.196-1.204-2.408-2.58-3.268-5.504-3.268-118.69 0-237.379 0-355.897 0-1.204 0-2.408 0.172-3.784 0.172 0 0.172 0 0.516 0 0.86zM426.079 779.041c2.408-0.516 4.816-1.032 7.397-1.548 37.155-7.741 63.645-43.176 59.861-80.159-3.956-39.735-35.435-69.15-74.482-69.666-38.703-0.344-71.386 28.038-76.202 66.397-4.988 40.595 23.050 77.75 63.473 84.115 1.032 0.172 2.064 0.516 3.096 0.86 5.676 0 11.353 0 16.857 0zM580.204 290.693c5.848 9.805 11.525 19.438 17.201 29.242 13.933 23.566 27.694 47.304 41.799 71.042 1.892 3.096 1.72 5.16-0.172 8.257-14.965 24.77-29.93 49.712-44.896 74.482-7.053 11.869-3.44 27.866 8.085 34.919 12.557 7.569 28.382 3.612 35.779-8.601 20.642-34.575 41.455-69.15 62.097-103.552 1.548-2.752 3.612-4.128 6.709-4.644 40.939-6.709 81.879-13.589 122.818-20.642 15.825-2.58 30.791-7.569 44.38-16.685 7.913-5.332 14.277-11.869 19.094-20.298 18.75-33.199 37.843-66.225 56.765-99.424 0.516-1.032 1.204-2.236 1.892-3.612-1.204-0.86-2.408-1.892-3.612-2.752-54.356-40.079-108.541-79.987-162.897-120.066-15.481-11.353-32.167-20.814-51.604-23.738-5.16-0.688-10.665-0.516-15.997-0.516-206.245 0-412.49 0-618.735 0-9.805 0-18.061 2.752-24.082 10.665-7.569 9.977-8.085 20.642-1.892 31.651 24.254 44.036 48.508 87.899 72.762 132.107 5.332 9.633 10.665 19.094 15.825 28.898 1.376 2.752 3.096 3.612 6.193 3.612 53.152 0 106.133 0 159.113 0 1.548 0 3.268 0 6.193 0-3.096 3.096-5.504 4.988-7.569 7.225-13.417 14.793-20.642 31.995-20.642 52.12 0 61.753-0.172 123.678 0 185.431 0 40.079 31.135 73.278 70.354 75.514 41.455 2.408 75.686-26.146 80.847-67.086 0.344-3.784 0.344-7.569 0.344-11.353 0-23.91 0-47.82 0-71.73 0-1.548 0-2.924 0-5.16 1.892 0 3.612 0 5.16 0 30.791 0 61.753 0 92.544-0.172 19.266 0 33.887-12.385 36.639-30.619 3.268-21.33-13.417-40.939-35.091-40.939-31.307 0-62.613 0-93.748 0-1.548 0-3.268 0-5.332 0 0-5.848 0-11.181 0-16.513 0-8.773 0-17.373 0-26.146 0-2.408 0.516-3.784 3.096-4.644 39.563-14.965 79.126-30.102 118.862-45.24 0.344-0.688 0.86-0.688 1.72-1.032z" />
<glyph unicode="&#xe640;" glyph-name="phone2" d="M574.925 397.875c-81.050-81.101-174.95-158.618-212.070-121.446-53.146 53.094-85.862 99.379-203.008 5.274s-27.187-156.877 24.32-208.384c59.392-59.341 280.781-3.123 499.661 215.706 218.778 218.829 275.098 440.269 215.654 499.661-51.456 51.507-114.176 141.414-208.333 24.32s-47.872-149.862 5.274-203.008c37.018-37.171-40.448-131.021-121.498-212.122z" />
<glyph unicode="&#xe641;" glyph-name="paperclip" d="M254.003-51.2c-68.403 0-132.454 28.979-178.739 75.315-89.6 89.6-114.637 246.067 11.008 371.712 73.677 73.574 368.589 368.486 515.789 515.686 52.275 52.275 118.733 72.448 182.426 55.347 62.515-16.691 113.818-67.942 130.56-130.509 17.050-63.693-3.174-130.202-55.398-182.426l-493.158-493.21c-28.16-28.16-59.955-44.851-91.955-48.179-31.642-3.328-61.85 6.861-83.046 28.006-38.4 38.349-43.827 110.541 19.968 174.285l346.368 346.47c14.234 14.182 37.325 14.182 51.558 0 14.234-14.234 14.234-37.325 0-51.558l-346.419-346.419c-29.952-29.952-32.717-58.573-19.968-71.322 5.581-5.53 14.080-8.090 23.859-7.066 15.002 1.587 32.102 11.315 48.077 27.29l493.158 493.158c33.843 33.843 46.797 73.626 36.506 112.077-10.138 37.837-41.165 68.864-79.002 79.002-38.451 10.291-78.234-2.714-112.077-36.506-147.149-147.2-442.061-442.112-515.686-515.686-96.051-96.051-73.062-206.592-11.059-268.646 62.054-62.003 172.595-85.043 268.698 11.059l515.738 515.686c14.182 14.234 37.325 14.234 51.507 0 14.234-14.234 14.234-37.325 0-51.507l-515.738-515.738c-60.774-60.826-128.768-86.323-192.973-86.323z" />
<glyph unicode="&#xe642;" glyph-name="user" d="M758.784 233.062c-126.208 45.978-166.554 84.787-166.554 167.885 0 49.869 38.554 33.587 55.45 124.928 7.014 37.888 41.062 0.614 47.616 87.091 0 34.458-18.586 43.059-18.586 43.059s9.472 51.046 13.158 90.266c4.506 48.947-28.262 175.309-203.469 175.309-175.155 0-208.026-126.362-203.418-175.309 3.686-39.219 13.158-90.266 13.158-90.266s-18.637-8.55-18.637-43.059c6.502-86.477 40.55-49.203 47.565-87.091 16.947-91.341 55.501-75.059 55.501-124.928 0-83.098-40.346-121.907-166.554-167.885-126.669-46.080-208.896-93.133-208.896-125.235 0-32.051 0-107.776 0-107.776h962.56c0 0 0 75.725 0 107.776s-82.278 79.104-208.896 125.235z" />
<glyph unicode="&#xe645;" glyph-name="compass" d="M505.446 952.269c-271.462-3.635-488.55-226.611-484.915-498.022 3.635-271.462 226.611-488.55 498.074-484.966 271.411 3.686 488.55 226.611 484.915 498.074-3.738 271.462-226.714 488.55-498.074 484.915zM517.171 72.806c-214.272-2.918-390.298 168.499-393.216 382.822-2.816 214.272 168.55 390.298 382.874 393.165 214.272 2.867 390.298-168.499 393.165-382.822s-168.499-390.246-382.822-393.165zM279.194 230.195c0 0 233.933 32.102 333.722 131.891s131.891 333.722 131.891 333.722-233.882-32.154-333.67-131.891c-99.789-99.84-131.942-333.722-131.942-333.722zM461.568 513.434c41.933 41.984 122.112 71.731 190.925 90.214-18.483-68.659-48.384-149.453-90.061-191.078-27.853-27.853-73.011-27.853-100.864 0-27.904 27.853-27.904 73.011 0 100.864z" />
<glyph unicode="&#xe646;" glyph-name="location" d="M1009.613 958.464c-34.816 34.867-68.096 1.894-180.992-52.326-302.080-145.254-828.621-440.269-828.621-440.269l452.352-64.666 64.666-452.403c0 0 295.066 526.541 440.269 828.621 54.323 112.947 87.194 146.125 52.326 181.043zM901.12 842.035l-328.602-610.15-33.331 277.299 361.933 332.851z" />
<glyph unicode="&#xe648;" glyph-name="thumbsup" d="M698.778 595.814c-6.758 18.176 181.248 186.112 71.578 322.15-25.702 31.795-112.691-152.371-236.288-235.725-68.147-45.978-226.867-143.872-226.867-197.99v-350.259c0-65.075 251.597-133.99 442.829-133.99 70.093 0 171.571 439.040 171.571 508.826 0 69.99-216.064 68.762-222.822 86.989zM256 590.95c-33.638 0-153.6-20.48-153.6-159.846v-248.218c0-139.366 119.962-154.675 153.6-154.675s-51.2 29.286-51.2 115.661v326.298c0 90.522 84.838 120.781 51.2 120.781z" />
<glyph unicode="&#xe649;" glyph-name="comment" d="M819.2 819.2h-614.4c-56.32 0-102.4-46.080-102.4-102.4v-358.4c0-56.32 46.080-102.4 102.4-102.4h204.8l204.8-153.6v153.6h204.8c56.32 0 102.4 46.080 102.4 102.4v358.4c0 56.32-46.080 102.4-102.4 102.4z" />
<glyph unicode="&#xe64a;" glyph-name="quote" d="M251.699 778.086c-82.432 0-149.299-68.762-149.299-153.6s66.867-153.6 149.299-153.6c149.248 0 49.766-296.96-149.299-296.96v-71.629c355.226 0 494.438 675.789 149.299 675.789zM681.728 778.086c-82.432 0-149.299-68.762-149.299-153.6s66.867-153.6 149.299-153.6c149.248 0 49.766-296.96-149.299-296.96v-71.629c355.277 0 494.49 675.789 149.299 675.789z" />
<glyph unicode="&#xe64d;" glyph-name="tools" d="M160.461 620.032c47.821 37.12 87.45 11.571 140.339-49.664 5.99-6.861 13.978 1.178 18.483 5.12 4.506 3.994 74.342 66.765 77.722 69.683 3.43 3.021 7.526 8.653 2.099 14.95s-25.293 32-38.042 48.64c-92.57 121.088 253.235 203.213 200.090 204.493-26.982 0.717-135.475 1.946-151.654 0.256-65.69-6.963-148.173-68.352-189.696-96.922-54.272-37.325-74.598-58.982-77.926-62.003-15.36-13.466-2.458-44.39-30.31-68.813-29.44-25.805-47.77-6.298-64.819-21.248-8.499-7.475-32.102-25.139-38.912-31.13-6.758-5.939-7.987-16.026-1.075-24.115 0 0 64.666-71.475 70.144-77.773 5.427-6.298 20.019-11.622 29.082-3.635 9.062 7.936 32.307 28.365 36.25 31.846 3.994 3.43-2.56 44.186 18.227 60.314zM452.762 593.613c-6.144 7.117-13.722 7.27-20.326 1.434l-73.472-64.051c-5.734-5.12-6.502-14.541-1.331-20.48l424.653-483.226c9.882-11.469 27.085-12.646 38.502-2.714l49.715 41.574c11.315 9.933 12.493 27.341 2.611 38.758l-420.352 488.704zM1018.982 799.283c-3.789 25.293-16.896 19.968-23.706 9.216-6.707-10.701-36.915-56.371-49.306-77.005-12.288-20.582-42.496-60.979-99.021-21.094-58.778 41.574-38.298 70.605-28.109 90.112 10.291 19.61 41.882 74.496 46.49 81.408 4.506 6.912-0.819 26.982-18.995 18.586-18.278-8.448-129.178-52.531-144.589-115.712-15.718-64.358 13.21-121.805-43.52-178.893l-68.71-71.68 69.018-80.282 84.685 80.435c20.224 20.275 63.283 39.987 102.298 31.13 83.61-18.944 129.178 12.493 156.723 64.358 24.678 46.438 20.582 144.128 16.742 169.421zM140.288 99.789c-10.65-10.752-10.65-28.16 0-38.861l48.691-47.616c10.65-10.701 27.546-6.195 38.195 4.506l251.238 247.040-77.005 87.706-261.12-252.774z" />
<glyph unicode="&#xe64e;" glyph-name="camera" d="M512 563.2c-84.787 0-153.6-68.813-153.6-153.6 0-84.838 68.813-153.6 153.6-153.6 84.838 0 153.6 68.762 153.6 153.6 0 84.787-68.762 153.6-153.6 153.6zM921.6 716.8h-122.829c-16.896 0-35.123 13.107-40.448 29.133l-31.744 95.283c-5.427 16.077-23.603 29.184-40.499 29.184h-348.16c-16.896 0-35.123-13.107-40.397-29.133l-31.846-95.334c-5.325-16.026-23.501-29.133-40.397-29.133h-122.88c-56.32 0-102.4-46.080-102.4-102.4v-460.8c0-56.32 46.080-102.4 102.4-102.4h819.2c56.371 0 102.4 46.080 102.4 102.4v460.8c0 56.32-46.029 102.4-102.4 102.4zM512 153.6c-141.414 0-256 114.586-256 256 0 141.363 114.586 256 256 256 141.363 0 256-114.637 256-256 0-141.414-114.637-256-256-256zM885.76 542.822c-19.763 0-35.789 16.026-35.789 35.84s16.026 35.84 35.789 35.84c19.814 0 35.84-16.026 35.84-35.84s-16.026-35.84-35.84-35.84z" />
<glyph unicode="&#xe64f;" glyph-name="music" d="M312.832 833.075v-607.59c-33.075 6.912-71.578 4.301-109.773-9.83-85.862-31.898-116.173-109.568-93.389-173.363 22.733-63.846 89.958-89.651 175.821-57.754 72.909 27.085 120.678 87.091 119.45 143.718 0 0 0 322.202 0 501.914l363.571 83.302v-385.536c-33.075 6.912-71.578 4.301-109.773-9.83-85.914-31.898-116.224-109.568-93.44-173.363 22.784-63.846 89.958-89.651 175.872-57.754 72.96 27.085 120.627 87.091 119.501 143.718v720.077l-547.84-117.709z" />
</font>
</defs>
</svg>
